<?xml version="1.0" standalone="no"?>
<!DOCTYPE svg PUBLIC "-//W3C//DTD SVG 1.1//EN" "http://www.w3.org/Graphics/SVG/1.1/DTD/svg11.dtd" >
<svg xmlns="http://www.w3.org/2000/svg">
  <metadata>Created by iconfont</metadata>
  <defs>
  <font id="iconfont" horiz-adv-x="1024">
    <font-face
      font-family="iconfont"
      font-weight="400"
      font-stretch="normal"
      units-per-em="1024"
      ascent="896"
      descent="-128"
    />
      <missing-glyph />
      
      <glyph glyph-name="ai-icon-you" unicode="&#59269;" d="M330.88-10.24a30.08 30.08 0 0 0-22.4 9.6c-12.8 12.8-12.8 32.64 0 45.44l339.2 339.2-339.2 339.2c-12.8 12.8-12.8 32.64 0 45.44s32.64 12.8 45.44 0l362.24-362.24c12.8-12.8 12.8-32.64 0-45.44l-362.24-362.24c-6.4-6.4-14.72-9.6-22.4-9.6z"  horiz-adv-x="1024" />
      
      <glyph glyph-name="ai-icon-xia" unicode="&#59267;" d="M752.64 485.12a32 32 0 0 1-28.8 17.92H300.16c-12.16 0-23.04-7.04-28.8-17.92a31.36 31.36 0 0 1 3.2-33.28l211.84-281.6c5.76-7.68 15.36-12.8 25.6-12.8s19.2 4.48 25.6 12.8l211.84 281.6c7.04 9.6 8.32 22.4 3.2 33.28z"  horiz-adv-x="1024" />
      
      <glyph glyph-name="ai-icon-zuo" unicode="&#59268;" d="M693.12-10.24a30.08 30.08 0 0 0-22.4 9.6L308.48 361.6c-12.8 12.8-12.8 32.64 0 45.44l361.6 361.6c12.8 12.8 32.64 12.8 45.44 0s12.8-32.64 0-45.44L376.32 384l339.2-339.2c12.8-12.8 12.8-32.64 0-45.44-6.4-6.4-14.72-9.6-22.4-9.6z"  horiz-adv-x="1024" />
      
      <glyph glyph-name="ai-icon-shang" unicode="&#59264;" d="M752.64 238.72a32 32 0 0 0-28.8-17.92H300.16c-12.16 0-23.04 7.04-28.8 17.92a31.36 31.36 0 0 0 3.2 33.28l211.84 281.6c5.76 7.68 15.36 12.8 25.6 12.8s19.2-4.48 25.6-12.8l211.84-281.6c7.04-9.6 8.32-22.4 3.2-33.28z"  horiz-adv-x="1024" />
      
      <glyph glyph-name="control" unicode="&#59265;" d="M743.04 778.24v51.2h-64v-165.76h64v50.56h185.6v64h-185.6zM96.64 776.96h512v-64h-512zM282.88 301.44h64V466.56h-64v-50.56H96.64v-64h186.24v-50.56zM556.8 104.32h-64v-165.76h64v51.2h371.84v64H556.8v50.56zM416 416h512.64v-64H416zM96.64 53.76h320v-64h-320z"  horiz-adv-x="1024" />
      
      <glyph glyph-name="revise" unicode="&#59266;" d="M192 764.16h407.04v-200.32c0-17.92 14.72-32.64 32.64-32.64H832v-79.36h65.28V564.48s-0.64 2.56-0.64 4.48c0 1.28 0 2.56-0.64 3.84a29.696 29.696 0 0 1-7.68 14.72l-232.96 232.96a32.64 32.64 0 0 1-14.72 7.68c-1.28 0-2.56 0-3.84 0.64-1.28 0-2.56 0.64-4.48 0.64H159.36c-17.92 0-32.64-14.72-32.64-32.64v-832c0-17.92 14.72-32.64 32.64-32.64h311.04v65.28H192V764.16z m593.92-167.68h-120.96V717.44l120.96-120.96zM260.48 634.24H531.2v-64H260.48zM258.816 348.864l0.32 67.2 508.8-2.304-0.32-67.2zM259.2 197.12h256.64v-67.2H259.2zM1005.44 292.48l-94.08 94.08c-12.8 12.8-32.64 12.8-45.44 0l-265.6-265.6c-3.84-3.84-6.4-8.32-7.68-13.44l-41.6-135.68c-3.2-11.52 0-23.68 7.68-32 6.4-5.76 14.08-9.6 22.4-9.6 3.2 0 6.4 0 9.6 1.28l135.68 41.6c5.12 1.28 9.6 4.48 13.44 7.68l265.6 265.6c12.8 12.8 12.8 32.64 0 45.44z m-305.28-260.48l-70.4-21.76 21.76 70.4 237.44 237.44 49.28-49.28-237.44-237.44z"  horiz-adv-x="1024" />
      
      <glyph glyph-name="ai-icon-shuangxiang" unicode="&#59262;" d="M748.16 170.88a30.08 30.08 0 0 0-22.4 9.6c-12.8 12.8-12.8 32.64 0 45.44l126.08 126.08H172.16l126.08-126.08c12.8-12.8 12.8-32.64 0-45.44s-32.64-12.8-45.44 0L71.68 361.6c-12.8 12.8-12.8 32.64 0 45.44l181.12 181.12c12.8 12.8 32.64 12.8 45.44 0s12.8-32.64 0-45.44L172.16 416.64h679.68l-126.08 126.08c-12.8 12.8-12.8 32.64 0 45.44s32.64 12.8 45.44 0l181.12-181.12 0.64-0.64s4.48-5.76 5.76-9.6c1.92-3.84 2.56-8.32 2.56-12.8s-0.64-8.96-2.56-12.8c-1.28-3.2-3.2-6.4-5.76-9.6s0 0-0.64-0.64l-181.12-181.12c-6.4-6.4-14.72-9.6-22.4-9.6z"  horiz-adv-x="1024" />
      
      <glyph glyph-name="ai-icon-fenxiang" unicode="&#59263;" d="M800.64 288c-58.88 0-110.08-32.64-137.6-80L382.72 301.44c0.64 6.4 1.92 12.16 1.92 19.2 0 25.6-6.4 49.28-17.28 71.04L569.6 549.12c28.16-23.68 64-39.04 103.04-39.04a160 160 0 0 1 0 320 160 160 0 0 1-160-160c0-25.6 6.4-49.28 17.28-71.04L327.68 441.6c-28.16 23.68-64 39.04-103.04 39.04a160 160 0 0 1 0-320c58.88 0 110.08 32.64 137.6 80l280.32-93.44c-0.64-6.4-1.92-12.16-1.92-19.2a160 160 0 0 1 320 0 160 160 0 0 1-160 160z m-128 477.44c53.12 0 96-42.88 96-96s-42.88-96-96-96-96 42.88-96 96 42.88 96 96 96z m-448-541.44c-53.12 0-96 42.88-96 96s42.88 96 96 96 96-42.88 96-96-42.88-96-96-96z m576-192c-53.12 0-96 42.88-96 96s42.88 96 96 96 96-42.88 96-96-42.88-96-96-96z"  horiz-adv-x="1024" />
      
      <glyph glyph-name="ai-icon-suiji" unicode="&#59260;" d="M888.96 167.04h-60.16C872.32 230.4 896 305.28 896 384c0 102.4-39.68 199.04-112.64 271.36a383.04 383.04 0 0 1-385.28 95.36 31.872 31.872 0 1 1 19.2-60.8 319.36 319.36 0 0 0 321.28-79.36C798.72 550.4 832 469.76 832 384c0-53.76-14.72-104.32-39.04-150.4v29.44c0 17.92-14.08 32-32 32s-32-14.08-32-32v-128a32.64 32.64 0 0 1 32-32h128c17.92 0 32 14.08 32 32s-14.08 32-32 32zM583.04 71.68c-108.16-24.32-218.88 7.68-296.96 85.76-60.16 60.16-93.44 140.8-93.44 226.56 0 53.76 14.72 104.32 39.04 150.4v-29.44c0-17.92 14.08-32 32-32s32 14.08 32 32v128a32.64 32.64 0 0 1-32 32h-128c-17.92 0-32-14.08-32-32s14.08-32 32-32h60.16C152.32 537.6 128.64 462.72 128.64 384c0-102.4 39.68-199.04 112.64-271.36a382.336 382.336 0 0 1 356.48-103.04 32.192 32.192 0 0 1-14.08 62.72z"  horiz-adv-x="1024" />
      
      <glyph glyph-name="ai-icon-danxiang" unicode="&#59261;" d="M748.16 170.88a30.08 30.08 0 0 0-22.4 9.6c-12.8 12.8-12.8 32.64 0 45.44l126.72 126.72H96.64c-17.92 0-32 14.08-32 32s14.08 32 32 32h755.2l-126.08 126.08c-12.8 12.8-12.8 32.64 0 45.44s32.64 12.8 45.44 0l179.2-179.2c7.04-5.76 10.88-14.72 10.88-24.32 0-8.96-3.84-16.64-9.6-22.4l-181.12-181.12c-6.4-6.4-14.72-9.6-22.4-9.6z"  horiz-adv-x="1024" />
      
      <glyph glyph-name="ai-icon_weixin" unicode="&#59259;" d="M857.6 0h-12.8l-51.2 32c-25.6-6.4-64-12.8-96-12.8-128 0-236.8 70.4-275.2 166.4h-12.8c-44.8 0-89.6 0-134.4 12.8h-12.8l-76.8-38.4h-38.4c-12.8 6.4-12.8 19.2-6.4 32l19.2 51.2c-83.2 64-128 140.8-128 230.4C32 640 185.6 768 377.6 768s313.6-102.4 345.6-243.2c147.2-12.8 268.8-121.6 268.8-256s-38.4-134.4-115.2-192l12.8-38.4c0-12.8 0-25.6-12.8-32 0 0-12.8-6.4-19.2-6.4z m-70.4 32z m83.2 38.4z m-172.8 390.4c-128 0-230.4-83.2-230.4-192s102.4-192 230.4-192 57.6 6.4 89.6 12.8h32c0 12.8 6.4 19.2 19.2 25.6 64 44.8 96 102.4 96 153.6 0 102.4-108.8 192-230.4 192z m153.6-364.8zM256 198.4z m12.8 0z m-6.4 57.6h32c38.4-12.8 76.8-19.2 115.2-12.8v25.6c0 128 115.2 236.8 256 256C640 627.2 518.4 710.4 384 710.4S96 601.6 96 473.6s38.4-134.4 108.8-185.6c12.8-12.8 19.2-25.6 19.2-44.8h12.8c0 12.8 12.8 12.8 19.2 12.8zM275.2 563.2m-44.8 0a44.8 44.8 0 1 1 89.6 0 44.8 44.8 0 1 1-89.6 0ZM499.2 563.2m-44.8 0a44.8 44.8 0 1 1 89.6 0 44.8 44.8 0 1 1-89.6 0ZM608 326.4m-38.4 0a38.4 38.4 0 1 1 76.8 0 38.4 38.4 0 1 1-76.8 0ZM780.8 326.4m-38.4 0a38.4 38.4 0 1 1 76.8 0 38.4 38.4 0 1 1-76.8 0Z"  horiz-adv-x="1024" />
      
      <glyph glyph-name="feiyi1" unicode="&#59258;" d="M76.8 56.32V698.24h71.04l276.48-504.32V698.24h66.56v-641.28H419.84L143.36 561.28v-504.32H76.16zM743.68 56.32V622.08H570.24V697.6h416.64v-75.52H812.8v-565.76h-69.76z"  horiz-adv-x="1024" />
      
      <glyph glyph-name="a-feiyirepeat-1" unicode="&#59257;" d="M416 746.88h480v64h-480c-176.64 0-320-143.36-320-320h64c0 141.44 114.56 256 256 256zM864 277.12c0-141.44-114.56-256-256-256h-480v-64h480c176.64 0 320 143.36 320 320h-64zM291.84 614.4h-63.36v-473.6h64V477.44l184.32-336.64h63.36V614.4h-63.36v-336.64L291.84 614.4zM770.56 140.8V544.64h124.16V614.4h-313.6v-69.76h123.52v-403.84h65.92z"  horiz-adv-x="1025" />
      
      <glyph glyph-name="repeat" unicode="&#59255;" d="M405.76 595.84h419.84l-124.8-117.12 43.52-46.72 184.32 172.16a32.384 32.384 0 0 1 0 47.36l-184.32 172.16-43.52-46.72 124.8-117.12H405.76c-176.64 0-320-143.36-320-320h64c0 141.44 114.56 256 256 256zM618.24 172.16H198.4l124.8 117.12-43.52 46.72-184.32-172.16a32.384 32.384 0 0 1 0-47.36l184.32-172.16 43.52 46.72-124.8 117.12h419.84c176.64 0 320 143.36 320 320h-64c0-141.44-114.56-256-256-256z"  horiz-adv-x="1024" />
      
      <glyph glyph-name="a-repeatfirst" unicode="&#59256;" d="M700.16 478.72l43.52-46.72 184.32 172.16a32.384 32.384 0 0 1 0 47.36l-184.32 172.16-43.52-46.72 124.8-117.12h-268.8v-64h268.8l-124.8-117.12zM369.28 593.28l-8.96 63.36c-156.16-22.4-274.56-158.72-274.56-316.8h64c0 126.72 94.08 235.52 219.52 253.44zM618.24 172.16H198.4l124.8 117.12-43.52 46.72-184.32-172.16a32.384 32.384 0 0 1 0-47.36l184.32-172.16 43.52 46.72-124.8 117.12h419.84c176.64 0 320 143.36 320 320h-64c0-141.44-114.56-256-256-256zM442.88 513.92h52.48V789.76h-42.88c-5.76-16.64-17.28-31.36-33.28-44.16-16-12.8-31.36-21.12-44.8-25.6v-48c26.24 8.32 48.64 21.76 67.84 39.68v-198.4z"  horiz-adv-x="1024" />
      
      <glyph glyph-name="feiyi" unicode="&#59254;" d="M888.32 563.2l-208.64 208.64a32.832 32.832 0 0 1-45.44 0L421.76 559.36l45.44-45.44L656.64 704l163.2-163.84-189.44-189.44 45.44-45.44 211.84 211.84c12.8 12.8 12.8 32.64 0 45.44zM380.16 100.48l-204.16-40.96 40.96 204.16 153.6 153.6-45.44 45.44-160.64-160.64a32.64 32.64 0 0 1-8.96-16.64l-52.48-261.12a32.384 32.384 0 0 1 31.36-38.4h6.4l261.12 52.48c6.4 1.28 12.16 4.48 16.64 8.96l159.36 159.36-45.44 45.44-152.96-152.96zM135.936 703.232l45.248 45.248L865.024 64.64l-45.248-45.312z"  horiz-adv-x="1024" />
      
      <glyph glyph-name="zhixiang" unicode="&#59253;" d="M957.44 335.36c5.12 12.16 1.92 25.6-7.04 34.56l-283.52 283.52-45.44-45.44 229.12-229.12H64v-64h864c12.8 0 24.32 7.68 29.44 19.84z"  horiz-adv-x="1024" />
      
      <glyph glyph-name="ai-icon-xise" unicode="&#59252;" d="M890.24 727.04l-35.2 35.2a95.936 95.936 0 0 1-135.68 0L646.4 689.28a63.36 63.36 0 0 1-86.4-2.56L512 638.72a63.36 63.36 0 0 1-2.56-86.4L181.76 224c-28.16-28.16-42.24-65.28-40.32-103.04l-10.24-10.24c-32-32-33.28-81.92-3.84-112 14.08-14.08 33.28-21.12 52.48-21.12 21.12 0 42.88 8.32 58.88 24.96l10.24 10.24c37.76-1.28 74.88 12.16 103.04 40.32l327.68 327.68c11.52-10.24 25.6-16 40.96-16 17.28 0 33.28 6.4 45.44 18.56l48 48a63.36 63.36 0 0 1 2.56 86.4l72.96 72.96c37.12 37.12 37.12 98.56 0 135.68z m-583.68-628.48c-17.28-17.28-40.96-24.96-62.72-20.48l-16.64 3.84-33.92-33.92c-7.04-7.04-17.28-7.68-21.12-3.84-4.48 4.48-3.84 14.08 3.2 21.12l33.92 33.92-3.84 17.28c-4.48 21.12 3.2 45.44 20.48 62.08l327.04 327.68L633.6 425.6l-327.04-327.04z"  horiz-adv-x="1024" />
      
      <glyph glyph-name="a-Uploadfolder1" unicode="&#59251;" d="M96.64 481.92v-500.48c0.64-9.6 11.52-17.28 23.68-16.64h784.64c12.16 0 23.04 7.04 23.68 16.64V464.64c-1.28 9.6-12.16 17.28-24.32 16.64H96.64zM960 467.2V611.84c0 17.92-14.08 32-32 32H555.52L480.64 787.2a31.936 31.936 0 0 1-28.16 17.28H96.64c-17.92 0-32-14.08-32-32V-21.12c2.56-26.24 26.24-46.08 53.12-46.08h785.28c29.44-2.56 55.04 18.56 57.6 48.64V467.2zM128.64 740.48h304l74.88-143.36c5.76-10.88 16.64-17.28 28.16-17.28H896v-66.56H128.64V740.48z m0-743.68V449.28H896v-452.48H128.64zM674.56 264.96L535.68 403.84c-12.8 12.8-32.64 12.8-45.44 0L350.72 264.32c-12.8-12.8-12.8-32.64 0-45.44a31.04 31.04 0 0 1 44.8 0L480 303.36v-234.88c0-17.92 14.08-32 32-32s32 14.08 32 32V304.64l84.48-84.48a31.04 31.04 0 0 1 44.8 0c12.8 12.8 12.8 32.64 0 45.44z"  horiz-adv-x="1024" />
      
      <glyph glyph-name="ai-icon-shezhi2" unicode="&#59250;" d="M865.92 759.04H158.08C106.24 759.04 64 716.8 64 664.96v-540.8c0-51.84 42.24-94.08 94.08-94.08H512c17.92 0 32 14.08 32 32s-14.08 32-32 32H158.08a30.08 30.08 0 0 0-30.08 30.08V446.08h768v-31.36c0-17.92 14.08-32 32-32s32 14.08 32 32V665.6c0 51.84-42.24 94.08-94.08 94.08zM128 509.44V664.32c0 16.64 13.44 30.08 30.08 30.08h707.2c16.64 0 30.08-13.44 30.08-30.08v-154.88H128zM220.8 643.84c-23.04 0-41.6-18.56-41.6-41.6s18.56-41.6 41.6-41.6 41.6 18.56 41.6 41.6-18.56 41.6-41.6 41.6zM345.6 643.84c-23.04 0-41.6-18.56-41.6-41.6s18.56-41.6 41.6-41.6 41.6 18.56 41.6 41.6-18.56 41.6-41.6 41.6zM936.32 275.2a31.552 31.552 0 0 1-43.52 11.52l-49.92-28.8c-8.32 7.04-17.92 12.8-28.16 16.64v56.96c0 17.92-14.08 32-32 32s-32-14.08-32-32v-56.96c-10.24-3.84-19.84-9.6-28.16-16.64l-49.92 28.8c-15.36 8.96-35.2 3.84-43.52-11.52s-3.84-34.56 11.52-43.52l49.28-28.16a73.792 73.792 0 0 1 0-33.28l-49.28-28.16c-15.36-8.96-20.48-28.16-11.52-43.52a31.68 31.68 0 0 1 43.52-11.52l49.92 28.8c8.32-7.04 17.92-12.8 28.16-16.64v-56.96c0-17.92 14.08-32 32-32s32 14.08 32 32v56.96c10.24 3.84 19.84 9.6 28.8 16.64l49.92-28.8c5.12-2.56 10.88-4.48 16-4.48 10.88 0 21.76 5.76 27.52 16 8.96 15.36 3.84 34.56-11.52 43.52l-49.28 28.16a73.792 73.792 0 0 1 0 33.28l49.28 28.16c15.36 8.96 20.48 28.16 11.52 43.52z m-184.32-88.96c0 16.64 13.44 30.72 30.08 30.72s30.72-13.44 30.72-30.72-13.44-30.08-30.72-30.08-30.08 13.44-30.08 30.08z"  horiz-adv-x="1024" />
      
      <glyph glyph-name="refuse" unicode="&#59244;" d="M192.64 764.16h407.04v-200.32c0-17.92 14.72-32.64 32.64-32.64h200.32v-271.36h65.28V564.48s-0.64 2.56-0.64 4.48c0 1.28 0 2.56-0.64 3.84a29.696 29.696 0 0 1-7.68 14.72l-232.96 232.96a32.64 32.64 0 0 1-14.72 7.68c-1.28 0-2.56 0-3.84 0.64-1.28 0-2.56 0.64-4.48 0.64H160c-17.92 0-32.64-14.72-32.64-32.64v-832c0-17.92 14.72-32.64 32.64-32.64h407.04v65.28H192.64V764.16z m472.96-46.08l60.8-60.8 60.8-60.8h-120.96V717.44zM261.76 634.24h270.72v-64H261.76zM259.456 349.504l0.32 67.2 508.8-2.304-0.32-67.2zM259.84 197.12h256.64v-67.2H259.84zM963.2 206.08l-45.44 45.44-117.12-117.12-116.48 117.12-45.44-45.44 117.12-116.48-117.12-117.12 45.44-45.44 116.48 117.12 117.12-117.12 45.44 45.44-117.12 117.12 117.12 116.48z"  horiz-adv-x="1024" />
      
      <glyph glyph-name="bgcolor" unicode="&#59245;" d="M513.28 694.4c-167.68 0-303.36-136.32-303.36-303.36s136.32-303.36 303.36-303.36 303.36 136.32 303.36 303.36-136.32 303.36-303.36 303.36z m0-550.4c-136.32 0-247.04 110.72-247.04 247.04s110.72 247.04 247.04 247.04 247.04-110.72 247.04-247.04-110.72-247.04-247.04-247.04zM511.36 578.56v-384c105.6 0 192 86.4 192 192s-86.4 192-192 192zM148.48 422.4l-64 1.28c-18.56 1.92-32-13.44-32.64-31.36 0-17.92 13.44-32 31.36-32.64l64-1.28c17.28 0 31.36 14.08 32 31.36 0 17.92-13.44 32-31.36 32.64zM232.32 152.32l-46.08-44.16c-12.8-12.16-12.8-32.64-0.64-45.44a32.512 32.512 0 0 1 45.44-0.64l46.08 44.16c12.8 12.16 12.8 32.64 0.64 45.44-12.16 12.8-32.64 12.8-45.44 0.64zM515.2 51.84c-17.28 0-31.36-14.08-32-31.36l-1.28-64c0-17.92 13.44-32 31.36-32.64 17.28 0 31.36 14.08 32 31.36l1.28 64c0 17.92-13.44 32-31.36 32.64zM798.72 149.12c-12.16 12.8-32.64 12.8-45.44 0.64-12.8-12.16-13.44-32.64-0.64-45.44l44.16-46.08a32.512 32.512 0 0 1 45.44-0.64c12.8 12.16 13.44 32.64 0.64 45.44l-44.16 46.08zM949.76 417.92l-64 1.28c-19.2 0-32-13.44-32.64-31.36 0-17.92 13.44-32 31.36-32.64l64-1.28c17.28 0 31.36 14.08 32 31.36 0 17.92-13.44 32-31.36 32.64zM778.24 616.32c7.68 0 16 3.2 22.4 8.96l46.08 44.16c12.8 12.16 13.44 32.64 0.64 45.44-12.16 12.8-32.64 12.8-45.44 0.64l-46.08-44.16c-12.8-12.16-13.44-32.64-0.64-45.44 6.4-6.4 14.72-9.6 23.04-9.6zM517.76 725.12c17.28 0 31.36 14.08 32 31.36l1.28 64c0 17.92-13.44 32-31.36 32.64-17.28 0-32-13.44-32.64-31.36l-1.28-64c0-17.92 13.44-32 31.36-32.64zM234.24 628.48a32.512 32.512 0 0 1 45.44-0.64c12.8 12.16 12.8 32.64 0.64 45.44l-44.16 46.08c-12.16 12.8-32.64 12.8-45.44 0.64-12.8-12.16-12.8-32.64-0.64-45.44l44.16-46.08z"  horiz-adv-x="1024" />
      
      <glyph glyph-name="size" unicode="&#59246;" d="M442.88 719.36L156.8-35.2h99.84l82.56 225.28h334.08l81.28-225.28h103.04L573.44 719.36H442.88z m-70.4-442.24l129.28 351.36h12.8l127.36-351.36H371.84zM828.8 701.44V815.36h-49.28v-113.92H665.6v-49.28h113.92V537.6h49.28V652.16h114.56v49.28h-114.56z"  horiz-adv-x="1024" />
      
      <glyph glyph-name="column" unicode="&#59247;" d="M648.96 256h-275.2l-67.84-185.6H223.36l235.52 622.08h107.52l234.88-622.08h-85.12L648.96 256z m-26.24 71.68L517.76 616.96h-10.88L400 327.68h222.08zM83.2 826.24h64v-896h-64zM876.8 826.24h64v-896h-64z"  horiz-adv-x="1024" />
      
      <glyph glyph-name="accept" unicode="&#59248;" d="M956.8 249.6l-239.36-239.36-120.32 119.68-45.44-45.44 142.72-142.08a31.04 31.04 0 0 1 44.8 0l261.76 262.4-45.44 45.44zM192 764.16h407.04v-200.32c0-17.92 14.72-32.64 32.64-32.64H832v-271.36h65.28V564.48s-0.64 2.56-0.64 4.48c0 1.28 0 2.56-0.64 3.84a29.696 29.696 0 0 1-7.68 14.72l-232.96 232.96a32.64 32.64 0 0 1-14.72 7.68c-1.28 0-2.56 0-3.84 0.64-1.28 0-2.56 0.64-4.48 0.64H159.36c-17.92 0-32.64-14.72-32.64-32.64v-832c0-17.92 14.72-32.64 32.64-32.64h407.04v65.28H192V764.16z m593.92-167.68h-120.96V717.44l120.96-120.96zM260.48 634.24H531.2v-64H260.48zM258.816 348.864l0.32 67.2 508.8-2.304-0.32-67.2zM259.2 197.12h256.64v-67.2H259.2z"  horiz-adv-x="1024" />
      
      <glyph glyph-name="tracker" unicode="&#59249;" d="M192 764.16h407.04v-200.32c0-17.92 14.72-32.64 32.64-32.64H832v-79.36h65.28V564.48s-0.64 2.56-0.64 4.48c0 1.28 0 2.56-0.64 3.84a29.696 29.696 0 0 1-7.68 14.72l-232.96 232.96a32.64 32.64 0 0 1-14.72 7.68c-1.28 0-2.56 0.64-4.48 0.64-1.28 0-2.56 0.64-3.84 0.64H159.36c-17.92 0-32.64-14.72-32.64-32.64v-832c0-17.92 14.72-32.64 32.64-32.64h311.04v65.28H192V764.16z m472.32-167.68V717.44l60.8-60.8 60.8-60.8h-120.96zM260.48 634.24H531.2v-64H260.48zM259.2 416.64h386.56v-67.2H259.2zM259.2 197.12h200.32v-67.2H259.2zM979.2 197.12h-62.08a168.64 168.64 0 0 1-130.56 131.2v60.8h-67.2v-60.8a168.64 168.64 0 0 1-130.56-131.2h-60.8v-67.2h60.8a168.64 168.64 0 0 1 130.56-131.2v-60.8h67.2v60.8a168.64 168.64 0 0 1 130.56 131.2h62.08v67.2z m-225.92-134.4c-55.04 0-100.48 45.44-100.48 100.48s44.8 100.48 100.48 100.48 100.48-45.44 100.48-100.48-44.8-100.48-100.48-100.48z"  horiz-adv-x="1024" />
      
      <glyph glyph-name="ai-icon-jishiqi" unicode="&#59242;" d="M512-64c-211.84 0-384 172.16-384 384s172.16 384 384 384 384-172.16 384-384-172.16-384-384-384zM512 640C335.36 640 192 496.64 192 320s143.36-320 320-320 320 143.36 320 320-143.36 320-320 320zM640 768H384c-17.92 0-32 14.08-32 32S366.08 832 384 832h256c17.92 0 32-14.08 32-32s-14.08-32-32-32zM512 288c-17.92 0-32 14.08-32 32V499.2c0 17.92 14.08 32 32 32s32-14.08 32-32V320c0-17.92-14.08-32-32-32zM691.2 288H512c-17.92 0-32 14.08-32 32s14.08 32 32 32h179.2c17.92 0 32-14.08 32-32s-14.08-32-32-32zM512 640c-17.92 0-32 14.08-32 32v128c0 17.92 14.08 32 32 32s32-14.08 32-32v-128c0-17.92-14.08-32-32-32z"  horiz-adv-x="1024" />
      
      <glyph glyph-name="ai-icon-caidan" unicode="&#59243;" d="M832 608H192c-17.92 0-32 14.08-32 32s14.08 32 32 32h640c17.92 0 32-14.08 32-32s-14.08-32-32-32zM832 352H192c-17.92 0-32 14.08-32 32s14.08 32 32 32h640c17.92 0 32-14.08 32-32s-14.08-32-32-32zM832 96H192c-17.92 0-32 14.08-32 32s14.08 32 32 32h640c17.92 0 32-14.08 32-32s-14.08-32-32-32z"  horiz-adv-x="1024" />
      
      <glyph glyph-name="ai-icon-gantanhao" unicode="&#59241;" d="M806.4 678.4A412.8 412.8 0 0 1 512 800c-110.08 0-216.32-43.52-294.4-121.6A412.8 412.8 0 0 1 96 384c0-110.08 43.52-216.32 121.6-294.4A412.8 412.8 0 0 1 512-32c110.08 0 216.32 43.52 294.4 121.6A412.8 412.8 0 0 1 928 384c0 110.08-43.52 216.32-121.6 294.4z m-326.4-44.8c0 17.92 14.08 32 32 32s32-14.08 32-32v-332.8c0-17.92-14.08-32-32-32s-32 14.08-32 32V633.6z m32-519.68c-28.8 0-51.84 23.04-51.84 51.84s23.04 51.84 51.84 51.84 51.84-23.04 51.84-51.84-23.04-51.84-51.84-51.84z"  horiz-adv-x="1024" />
      
      <glyph glyph-name="ai-icon-top" unicode="&#59240;" d="M536.96-32c-17.92 0-32 14.08-32 32V520.32L303.36 318.72c-12.8-12.8-32.64-12.8-45.44 0-12.8 12.8-12.8 32.64 0 45.44l256 256c12.8 12.8 32.64 12.8 45.44 0l256-256c12.8-12.8 12.8-32.64 0-45.44-12.8-12.8-32.64-12.8-45.44 0L568.96 519.68V0c0-17.92-14.08-32-32-32z m256 768h-512c-17.92 0-32 14.08-32 32s14.08 32 32 32h512c17.92 0 32-14.08 32-32s-14.08-32-32-32z"  horiz-adv-x="1024" />
      
      <glyph glyph-name="ai-icon-Alipay" unicode="&#59238;" d="M928 233.6l-267.52 90.24c17.28 28.8 32 59.52 42.24 90.88 12.16 30.08 20.48 61.44 24.96 93.44l-173.44 1.28v59.52l209.92 1.28v41.6H554.24V707.2H451.2v-95.36H255.36v-41.6l195.84 1.28v-63.36H294.4v-33.28h323.2c-3.2-20.48-8.32-40.96-16-60.16-7.68-21.12-16-42.24-24.96-62.72-13.44-31.36-151.68 53.12-231.68 53.12s-177.28-32-186.88-125.44 45.44-144 122.24-162.56c71.68-15.36 145.92-4.48 209.92 30.72 46.08 26.24 87.68 59.52 122.88 99.2l311.68-151.68c-12.8-74.24-76.8-128-151.68-128H250.24a154.24 154.24 0 0 0-154.24 153.6v524.8c0 85.12 68.48 154.24 153.6 154.24h524.16c85.12 0 154.24-68.48 154.24-153.6v-412.8z m-389.76 51.84s-97.28-122.88-211.84-122.88-138.88 58.24-138.88 100.48 23.68 87.68 121.6 94.08 229.76-71.68 229.76-71.68z"  horiz-adv-x="1024" />
      
      <glyph glyph-name="ai-icon-huiyuan" unicode="&#59239;" d="M683.52 494.72L511.36 288.64 339.84 495.36H252.8v-33.28c10.88 1.28 21.76-3.2 28.16-12.16v-3.84c37.76-48.64 186.24-216.96 227.84-269.44 41.6 52.48 189.44 221.44 227.84 270.08 6.4 8.96 17.28 13.44 28.16 12.16v38.4h-75.52s-3.84 0-5.12-3.2z m252.8 51.84c32-37.76 32-92.8 0-130.56L730.88 192l-151.68-163.84c-15.36-21.12-39.68-33.28-65.92-33.28-26.24 0-49.92 12.8-65.92 33.28l-148.48 158.72-211.2 228.48c-32 37.12-32 91.52 0 128.64l97.28 108.16 80.64 87.68c16 20.48 40.96 32.64 67.2 32.64h359.04c24.96-1.28 48.64-12.8 64.64-32 33.28-33.28 105.6-113.92 149.76-160.64l30.08-33.28z"  horiz-adv-x="1024" />
      
      <glyph glyph-name="a-ai-icon-WeChatPay" unicode="&#59236;" d="M398.72 290.56c-13.44-6.4-29.44-1.92-36.48 10.88l-1.92 3.84-75.52 159.36c-3.2 6.4 0 14.72 6.4 17.92 4.48 1.92 10.24 1.28 14.08-1.28l89.6-60.8c10.88-7.04 24.96-8.32 37.12-3.84l420.48 179.2c-75.52 85.12-199.68 140.8-339.84 140.8-229.76 0-416-149.12-416-332.8 0-99.84 56.32-190.08 144-251.52 10.24-7.04 14.08-19.2 10.24-30.08-7.04-24.96-17.92-65.28-18.56-67.2-0.64-3.2-2.56-6.4-2.56-9.6 0-7.04 6.4-13.44 14.08-13.44 2.56 0 5.76 0.64 7.68 2.56l90.88 50.56c7.04 3.84 14.08 6.4 21.76 6.4 4.48 0 8.32 0 12.16-1.92a518.4 518.4 0 0 1 135.68-17.92c229.76 0 416 149.12 416 332.8 0 55.68-17.28 108.16-47.36 154.24L401.92 293.76l-3.2-1.92z"  horiz-adv-x="1024" />
      
      <glyph glyph-name="a-ai-icon-shanchured" unicode="&#59237;" d="M808.96 675.2l-2.56 2.56C645.76 838.4 383.36 840.32 220.8 680.32A414.528 414.528 0 0 1 96 387.2c-1.28-111.36 40.96-216.32 119.04-295.04l2.56-2.56c160.64-160.64 423.04-162.56 585.6-2.56a414.528 414.528 0 0 1 124.8 293.12c1.28 111.36-40.96 216.32-119.04 295.04zM705.92 232.96l-42.88-42.88L512 341.12l-151.04-151.04-42.88 42.88L469.12 384 318.08 535.04l42.88 42.88L512 426.88l151.04 151.04 42.88-42.88L554.88 384l151.04-151.04z"  horiz-adv-x="1024" />
      
      <glyph glyph-name="ai-icon-dingdan" unicode="&#59235;" d="M819.84-97.28H204.16c-42.24 0-76.16 34.56-76.16 76.8V721.92c0 42.24 33.92 76.8 76.16 76.8H358.4c17.92 0 32-14.08 32-32v-35.2h243.84v35.2c0 17.92 14.08 32 32 32h154.24c42.24 0 76.16-34.56 76.16-76.8v-741.76c0-42.24-33.92-76.8-76.16-76.8z m-615.68 832c-6.4 0-12.16-5.76-12.16-12.8v-741.76c0-7.04 5.12-12.8 12.16-12.8h615.68c6.4 0 12.16 5.76 12.16 12.8V721.92c0 7.04-5.12 12.8-12.16 12.8H697.6v-35.2c0-17.92-14.08-32-32-32H357.76c-17.92 0-32 14.08-32 32v35.2H203.52zM666.24 667.52H358.4c-17.92 0-32 14.08-32 32V833.28c0 17.92 14.08 32 32 32h307.84c17.92 0 32-14.08 32-32v-133.76c0-17.92-14.08-32-32-32z m-276.48 64H633.6V801.28H389.76v-69.76zM642.56 238.08h-256c-17.92 0-32 14.08-32 32s14.08 32 32 32h256c17.92 0 32-14.08 32-32s-14.08-32-32-32zM642.56 403.84h-256c-17.92 0-32 14.08-32 32s14.08 32 32 32h256c17.92 0 32-14.08 32-32s-14.08-32-32-32z"  horiz-adv-x="1024" />
      
      <glyph glyph-name="ai-icon-bofang" unicode="&#59209;" d="M352 96c-5.76 0-10.88 1.28-16 4.48A32.256 32.256 0 0 0 320 128V640c0 11.52 5.76 21.76 16 27.52 9.6 5.76 21.76 5.76 32 0l448-256c10.24-5.76 16-16 16-27.52s-6.4-22.4-16-27.52l-448-256c-5.12-2.56-10.24-4.48-16-4.48zM384 584.96v-401.92L735.36 384 384 584.96z"  horiz-adv-x="1024" />
      
      <glyph glyph-name="ai-icon-shezhi" unicode="&#59210;" d="M631.04-64c-5.12 0-10.24 1.28-14.72 3.84a29.376 29.376 0 0 0-15.36 18.56c-7.68 25.6-24.96 46.08-48 57.6-21.12 10.88-45.44 12.8-68.48 5.12-28.8-9.6-51.2-33.28-60.16-63.36-2.56-8.32-8.32-14.72-15.36-18.56-7.68-3.84-16-4.48-24.32-2.56a444.8 444.8 0 0 0-194.56 123.52 31.296 31.296 0 0 0-1.28 41.6c33.92 41.6 28.8 103.68-11.52 138.88-18.56 16.64-43.52 24.96-68.48 22.4a31.744 31.744 0 0 0-34.56 25.6c-5.76 30.72-8.96 62.08-8.96 93.44 0 47.36 7.04 94.72 20.48 138.88 3.84 13.44 16.64 22.4 30.72 22.4 26.24 0 49.28 10.24 66.56 28.16 17.92 18.56 27.52 43.52 27.52 69.76 0 15.36-3.2 30.08-9.6 43.52a32.256 32.256 0 0 0 6.4 36.48c52.48 50.56 116.48 88.32 185.6 108.16a32 32 0 0 0 37.76-16.64c16-32.64 47.36-53.12 82.56-53.12 34.56 0 66.56 20.48 82.56 53.12 7.04 14.08 22.4 21.12 37.76 16.64 69.12-19.84 133.12-56.96 185.6-108.16 9.6-9.6 12.8-24.32 6.4-36.48-23.04-48.64-3.84-108.16 42.24-131.84 12.8-6.4 24.96-9.6 41.6-9.6 12.8-1.92 26.88-8.96 31.36-23.04a483.136 483.136 0 0 0 11.52-232.32 31.36 31.36 0 0 0-34.56-25.6c-23.68 2.56-47.36-4.48-65.92-19.84-20.48-16.64-32.64-40.32-35.2-67.2-2.56-26.24 5.12-53.12 21.76-73.6 10.24-12.16 9.6-30.08-1.28-41.6-53.12-57.6-120.96-100.48-194.56-123.52-3.2-0.64-6.4-1.28-9.6-1.28z m-377.6 150.4c35.84-33.92 77.44-60.8 122.24-78.72 19.2 34.56 50.56 61.44 88.32 74.24 39.04 12.8 81.28 9.6 118.4-8.96 28.8-14.72 51.2-37.12 66.56-65.28 45.44 17.92 86.4 44.8 122.24 78.72-16 28.8-23.04 62.72-19.84 96 4.48 44.16 24.96 83.2 58.88 110.72 24.32 19.84 52.48 31.36 82.56 34.56 2.56 18.56 3.84 37.12 3.84 55.04 0 33.92-3.84 67.2-12.16 99.84-16 2.56-32 7.68-46.72 15.36-69.76 35.84-102.4 119.04-80 193.28-35.2 30.72-76.16 55.04-120.32 71.04C608 721.92 561.92 697.6 512 697.6s-96 24.32-125.44 64.64c-43.52-16-84.48-39.68-120.32-71.04 4.48-15.36 7.04-32 7.04-48.64 0-42.88-16-83.2-45.44-113.92-24.32-24.96-55.04-40.96-88.32-46.08-7.68-32-12.16-65.92-12.16-99.84 0-18.56 1.28-37.12 3.84-55.04 32-3.2 62.08-16 87.04-37.76 58.24-51.2 71.04-136.96 34.56-202.88zM512 190.72c-105.6 0-192 86.4-192 192s86.4 192 192 192 192-86.4 192-192-86.4-192-192-192z m0 320c-70.4 0-128-57.6-128-128s57.6-128 128-128 128 57.6 128 128-57.6 128-128 128z"  horiz-adv-x="1024" />
      
      <glyph glyph-name="ai-icon-wo" unicode="&#59211;" d="M512-64c-247.04 0-448 200.96-448 448s200.96 448 448 448 448-200.96 448-448-200.96-448-448-448zM512 768C300.16 768 128 595.84 128 384s172.16-384 384-384 384 172.16 384 384-172.16 384-384 384zM512 380.8c-70.4 0-128 57.6-128 128s57.6 128 128 128 128-57.6 128-128-57.6-128-128-128z m0 192c-35.2 0-64-28.8-64-64s28.8-64 64-64 64 28.8 64 64-28.8 64-64 64zM224 55.04h-1.92a32.576 32.576 0 0 0-30.08 33.92 238.848 238.848 0 0 0 237.44 222.08h165.12c124.8 0 229.12-97.28 237.44-221.44 1.28-17.92-12.16-32.64-29.44-33.92a32.064 32.064 0 0 0-33.92 29.44 174.528 174.528 0 0 1-173.44 161.92H430.08c-91.52 0-167.68-71.04-173.44-161.92a32.64 32.64 0 0 0-32-30.08z"  horiz-adv-x="1024" />
      
      <glyph glyph-name="ai-icon-xiazai" unicode="&#59212;" d="M864 122.88h-704c-17.92 0-32 14.08-32 32V658.56c0 57.6 44.16 103.68 97.92 103.68h307.84c17.92 0 32-14.08 32-32s-14.08-32-32-32H225.92c-18.56 0-33.92-17.92-33.92-39.68v-471.68h640v160c0 17.92 14.08 32 32 32s32-14.08 32-32v-192c0-17.92-14.08-32-32-32zM803.2-5.12h-582.4c-86.4 0-156.8 57.6-156.8 128v32c0 17.92 14.08 32 32 32h832c17.92 0 32-14.08 32-32v-32c0-70.4-70.4-128-156.8-128zM128 122.88c0-34.56 42.24-64 92.8-64h582.4c50.56 0 92.8 29.44 92.8 64H128zM768 453.12h-0.64c-3.84 0-7.68 1.28-11.52 2.56s-7.04 3.2-9.6 6.4 0 0-0.64 0.64l-90.24 90.24c-12.8 12.8-12.8 32.64 0 45.44s32.64 12.8 45.44 0l35.84-35.84V741.12c0 17.92 14.08 32 32 32s32-14.08 32-32v-178.56l35.84 35.84c12.8 12.8 32.64 12.8 45.44 0s12.8-32.64 0-45.44l-90.24-90.24-0.64-0.64s-6.4-4.48-9.6-6.4-7.04-2.56-11.52-2.56h-0.64z"  horiz-adv-x="1024" />
      
      <glyph glyph-name="ai-icon-yijian" unicode="&#59213;" d="M819.84-67.84H204.16c-42.24 0-76.16 33.28-76.16 73.6V754.56c0 40.32 33.92 73.6 76.16 73.6h477.44c17.92 0 32-14.08 32-32s-14.08-32-32-32H204.16c-6.4 0-12.16-4.48-12.16-9.6v-748.8c0-5.12 5.76-9.6 12.16-9.6h615.68c6.4 0 12.16 4.48 12.16 9.6V567.04c0 17.92 14.08 32 32 32s32-14.08 32-32v-561.28c0-40.32-33.92-73.6-76.16-73.6zM651.52 150.4h-320c-17.92 0-32 14.08-32 32s14.08 32 32 32h320c17.92 0 32-14.08 32-32s-14.08-32-32-32zM589.44 451.84a32.64 32.64 0 0 0-19.84 7.04 31.744 31.744 0 0 0-5.12 44.8l256 320.64c10.88 14.08 31.36 16 44.8 5.12 14.08-10.88 16-31.36 5.12-44.8l-256-320c-6.4-7.68-15.36-12.16-24.96-12.16zM523.52 316.16h-192c-17.92 0-32 14.08-32 32s14.08 32 32 32h192c17.92 0 32-14.08 32-32s-14.08-32-32-32z"  horiz-adv-x="1024" />
      
      <glyph glyph-name="ai-icon-qiehuan" unicode="&#59214;" d="M392.32-17.28a30.08 30.08 0 0 0-22.4 9.6l-256 256-0.64 0.64s-5.12 6.4-6.4 9.6a30.592 30.592 0 0 0-2.56 11.52v1.92c0 3.84 1.28 7.68 2.56 11.52a23.04 23.04 0 0 0 6.4 9.6l1.28 1.28s5.76 4.48 9.6 6.4 8.32 2.56 12.8 2.56h752c17.92 0 32-14.08 32-32s-14.08-32-32-32H213.12l201.6-201.6c12.8-12.8 12.8-32.64 0-45.44-6.4-6.4-14.72-9.6-22.4-9.6z m495.36 482.56H136.32c-17.92 0-32 14.08-32 32s14.08 32 32 32h674.56L609.28 730.88c-12.8 12.8-12.8 32.64 0 45.44s32.64 12.8 45.44 0l256-256s5.12-6.4 7.04-10.24 2.56-8.32 2.56-12.8-0.64-8.96-2.56-12.8c-1.28-3.2-3.2-6.4-5.76-9.6 0 0-0.64-1.28-1.28-1.28s-5.76-4.48-9.6-6.4-8.32-2.56-12.8-2.56z"  horiz-adv-x="1024" />
      
      <glyph glyph-name="ai-icon-shangchauntupian" unicode="&#59215;" d="M764.16-58.24H148.48c-42.24 0-76.16 33.92-76.16 76.16V633.6c0 41.6 33.92 76.16 76.16 76.16h403.84c17.92 0 32-14.08 32-32s-14.08-32-32-32H148.48c-6.4 0-12.16-5.12-12.16-12.16v-615.68c0-6.4 5.12-12.16 12.16-12.16h615.68c6.4 0 12.16 5.12 12.16 12.16V435.84c0 17.92 14.08 32 32 32s32-14.08 32-32v-417.92c0-42.24-33.92-76.16-76.16-76.16zM680.32 170.88h-448c-12.16 0-23.04 6.4-28.16 17.28a31.36 31.36 0 0 0 1.92 33.28l134.4 195.2a32.448 32.448 0 0 0 49.92 3.2l37.76-40.96 56.32 96.64c5.76 9.6 16 15.36 26.88 16 11.52 0 21.12-5.12 27.52-14.72l167.68-256c6.4-9.6 7.04-22.4 1.28-32.64-5.76-10.24-16.64-16.64-28.16-16.64z m-387.2 64H620.8L513.28 398.08 460.8 309.12a30.08 30.08 0 0 0-24.32-15.36 30.72 30.72 0 0 0-26.88 10.24l-39.68 43.52-77.44-112z m530.56 335.36c-17.92 0-32 14.08-32 32v59.52h-64c-17.92 0-32 14.08-32 32s14.08 32 32 32h64V794.24c0 17.92 14.08 32 32 32s32-14.08 32-32v-68.48h64c17.92 0 32-14.08 32-32s-14.08-32-32-32h-64v-59.52c0-17.92-14.08-32-32-32z"  horiz-adv-x="1024" />
      
      <glyph glyph-name="ai-icon-zanting" unicode="&#59222;" d="M682.88 96c-17.92 0-32 14.08-32 32V640c0 17.92 14.08 32 32 32s32-14.08 32-32v-512c0-17.92-14.08-32-32-32z m-341.76 0c-17.92 0-32 14.08-32 32V640c0 17.92 14.08 32 32 32s32-14.08 32-32v-512c0-17.92-14.08-32-32-32z"  horiz-adv-x="1024" />
      
      <glyph glyph-name="ai-icon-bangzhu" unicode="&#59226;" d="M512-64c-119.68 0-232.32 46.72-316.8 131.2S64 264.32 64 384s46.72 232.32 131.2 316.8S392.32 832 512 832s232.32-46.72 316.8-131.2C913.28 616.32 960 503.68 960 384s-46.72-232.32-131.2-316.8A445.44 445.44 0 0 0 512-64zM512 768c-102.4 0-199.04-39.68-271.36-112.64C168.32 583.04 128 486.4 128 384s39.68-199.04 112.64-271.36S409.6 0 512 0s199.04 39.68 271.36 112.64C855.68 184.96 896 281.6 896 384s-39.68 199.04-112.64 271.36A382.08 382.08 0 0 1 512 768zM512 262.4c-17.92 0-32 14.08-32 32V374.4c0 17.92 14.08 32 32 32 53.12 0 96 39.68 96 88.32S565.12 583.04 512 583.04s-96-39.68-96-88.32c0-17.92-14.08-32-32-32s-32 14.08-32 32c0 83.84 71.68 152.32 160 152.32s160-68.48 160-152.32c0-73.6-55.04-135.04-128-149.12v-51.2c0-17.92-14.08-32-32-32zM512 88.32c-35.2 0-64 28.8-64 64s28.8 64 64 64 64-28.8 64-64-28.8-64-64-64z m0 64v0z"  horiz-adv-x="1024" />
      
      <glyph glyph-name="ai-icon-laba" unicode="&#59227;" d="M496-32c-17.92 0-32 14.08-32 32V768c0 17.92 14.08 32 32 32 146.56 0 257.28-144 290.56-192h112.64c42.24 0 76.8-33.28 76.8-74.88v-295.04c0-40.96-34.56-74.88-76.8-74.88h-112.64c-33.28-49.28-144-195.2-290.56-195.2z m32 764.8v-697.6c120.96 24.32 213.12 174.72 213.76 176.64 5.76 9.6 16 15.36 27.52 15.36h129.92c7.04 0 12.8 4.48 12.8 10.88V533.12c0 5.76-5.76 10.88-12.8 10.88h-129.92c-10.88 0-21.76 5.76-27.52 15.36-0.64 1.92-92.8 150.4-213.76 173.44zM336 160a29.44 29.44 0 0 0-21.12 8.32 287.04 287.04 0 0 0-96 216.32c0 62.08 19.2 120.96 55.68 170.88 12.16 16.64 25.6 31.36 40.32 44.8 13.44 12.16 33.28 10.24 45.44-2.56 11.52-13.44 10.88-33.28-2.56-45.44-11.52-10.24-21.76-21.76-31.36-34.56-28.16-39.04-43.52-85.12-43.52-133.12s14.72-94.08 42.88-132.48c9.6-12.8 19.84-24.96 32-35.84a32.256 32.256 0 0 0-21.12-56.32zM288.64-14.72c-5.76 0-11.52 1.28-16.64 4.48C133.76 72.32 48 223.36 48 384s81.28 305.92 217.6 390.4c14.72 9.6 34.56 4.48 44.16-10.24 9.6-14.72 4.48-34.56-10.24-44.16C182.4 647.68 112 521.6 112 384s73.6-268.16 192.64-339.2c15.36-8.96 20.48-28.8 10.88-44.16-5.76-10.24-16.64-15.36-27.52-15.36z"  horiz-adv-x="1024" />
      
      <glyph glyph-name="ai-icon-quan" unicode="&#59228;" d="M896 64H128c-17.92 0-32 14.08-32 32V287.36c0 13.44 8.96 25.6 21.76 30.08 28.8 10.24 48 36.48 48 65.92s-19.2 56.32-48 65.92a32.32 32.32 0 0 0-21.76 30.08V670.72c0 17.92 14.08 32 32 32h768c17.92 0 32-14.08 32-32v-191.36c0-13.44-8.96-25.6-21.76-30.08-28.8-10.24-48-36.48-48-65.92s19.2-56.32 48-65.92c12.8-4.48 21.76-16.64 21.76-30.08v-191.36c0-17.92-14.08-32-32-32zM160 128h704V266.88c-42.88 23.68-69.76 67.84-69.76 117.12s27.52 93.44 69.76 117.12V640h-704v-138.88c42.88-23.68 69.76-67.84 69.76-117.12S202.24 290.56 160 266.88V128zM512 163.2c-17.92 0-32 14.08-32 32v256c0 17.92 14.08 32 32 32s32-14.08 32-32v-256c0-17.92-14.08-32-32-32zM512 419.2a30.08 30.08 0 0 0-22.4 9.6L398.72 519.04c-12.8 12.16-12.8 32.64 0 45.44s32.64 12.8 45.44 0L512 496.64l67.84 67.84c12.8 12.8 32.64 12.8 45.44 0s12.8-32.64 0-45.44L535.04 428.8c-6.4-6.4-14.72-9.6-22.4-9.6zM640 266.24H384c-17.92 0-32 14.08-32 32s14.08 32 32 32h256c17.92 0 32-14.08 32-32s-14.08-32-32-32zM640 396.8H384c-17.92 0-32 14.08-32 32s14.08 32 32 32h256c17.92 0 32-14.08 32-32s-14.08-32-32-32z"  horiz-adv-x="1024" />
      
      <glyph glyph-name="ai-icon-guanbi" unicode="&#59229;" d="M512-74.88c-247.04 0-448 199.04-448 443.52 0 108.16 39.68 212.48 112 293.76 32 35.84 69.76 66.56 112 90.88 15.36 8.96 34.56 3.84 43.52-12.16 8.96-15.36 3.2-35.2-12.16-43.52-35.84-20.48-68.48-46.72-96-78.08a374.4 374.4 0 0 1-96-250.88c0-209.28 172.16-379.52 384-379.52s384 170.24 384 379.52c0 92.16-33.92 181.76-96 250.88-27.52 30.72-60.16 56.96-96 78.08a31.552 31.552 0 0 0-11.52 43.52c8.96 15.36 28.16 20.48 43.52 12.16 42.24-24.32 80-54.4 112-90.88a441.472 441.472 0 0 0 112-293.76c0-244.48-200.96-443.52-448-443.52z m0 405.76c-17.92 0-32 14.08-32 32v448c0 17.92 14.08 32 32 32s32-14.08 32-32v-448c0-17.92-14.08-32-32-32z"  horiz-adv-x="1024" />
      
      <glyph glyph-name="ai-icon-jieshu" unicode="&#59231;" d="M512-64c-247.04 0-448 200.96-448 448s200.96 448 448 448 448-200.96 448-448-200.96-448-448-448zM512 768C300.16 768 128 595.84 128 384s172.16-384 384-384 384 172.16 384 384-172.16 384-384 384zM640 224H384c-17.92 0-32 14.08-32 32V512c0 17.92 14.08 32 32 32h256c17.92 0 32-14.08 32-32v-256c0-17.92-14.08-32-32-32z m-224 64h192v192h-192v-192z"  horiz-adv-x="1024" />
      
      <glyph glyph-name="ai-icon-naozhong" unicode="&#59232;" d="M512-90.88c-247.04 0-448 200.96-448 448s200.96 448 448 448 448-200.96 448-448-200.96-448-448-448z m0 832c-211.84 0-384-172.16-384-384s172.16-384 384-384 384 172.16 384 384-172.16 384-384 384zM652.16 159.36c-9.6 0-18.56 3.84-24.96 12.16l-128 158.72a32.64 32.64 0 0 0-7.04 19.84V575.36c0 17.92 14.08 32 32 32s32-14.08 32-32v-213.76l120.96-150.4c10.88-13.44 8.96-33.92-5.12-44.8a32.64 32.64 0 0 0-19.84-7.04zM104.96 730.88a32.32 32.32 0 0 0-14.72 60.8l128 64c16 7.68 35.2 1.28 42.88-14.08 7.68-16 1.28-35.2-14.08-42.88l-128-64c-4.48-2.56-9.6-3.2-14.08-3.2zM919.04 730.88c-5.12 0-9.6 1.28-14.08 3.2l-128 64a31.232 31.232 0 0 0-14.08 42.88c7.68 16 26.88 21.76 42.88 14.08l128-64c16-7.68 22.4-26.88 14.08-42.88-5.76-11.52-16.64-17.92-28.8-17.92z"  horiz-adv-x="1024" />
      
      <glyph glyph-name="ai-icon-lishijilu" unicode="&#59233;" d="M512 832c-126.08 0-245.12-54.4-328.96-145.28v32.64c0 17.92-14.08 32-32 32s-32-14.08-32-32v-128c0-17.92 14.08-32 32-32h128c17.92 0 32 14.08 32 32s-14.08 32-32 32H212.48A384.96 384.96 0 0 0 512 768c211.84 0 384-172.16 384-384s-172.16-384-384-384-384 172.16-384 384c0 17.92-14.08 32-32 32S64 401.92 64 384c0-247.04 200.96-448 448-448s448 200.96 448 448-200.96 448-448 448zM536.32 612.48c-17.92 0-32-14.08-32-32v-187.52c0-8.32 3.2-16 8.96-22.4l128-132.48a32.512 32.512 0 0 1 45.44-0.64c12.8 12.16 12.8 32.64 0.64 45.44L568.32 405.76V580.48c0 17.92-14.08 32-32 32z"  horiz-adv-x="1024" />
      
      <glyph glyph-name="ai-icon-luyin" unicode="&#59234;" d="M512 202.88c105.6 0 192 81.28 192 181.12V661.12C704 760.96 617.6 842.24 512 842.24S320 760.96 320 661.12V384c0-99.84 86.4-181.12 192-181.12zM384 661.12c0 64.64 57.6 117.12 128 117.12s128-52.48 128-117.12V384c0-64.64-57.6-117.12-128-117.12S384 319.36 384 384V661.12zM832 437.12c-17.92 0-32-14.08-32-32 0-158.72-129.28-288-288-288s-288 129.28-288 288c0 17.92-14.08 32-32 32s-32-14.08-32-32c0-183.04 140.8-334.72 320-350.72v-97.28c0-17.92 14.08-32 32-32s32 14.08 32 32v97.28c179.2 16 320 167.04 320 350.72 0 17.92-14.08 32-32 32z"  horiz-adv-x="1024" />
      
      <glyph glyph-name="ai-icon-bofang2" unicode="&#59208;" d="M512-64c-247.04 0-448 200.96-448 448s200.96 448 448 448 448-200.96 448-448-200.96-448-448-448zM512 768C300.16 768 128 595.84 128 384s172.16-384 384-384 384 172.16 384 384-172.16 384-384 384zM425.6 192c-5.12 0-10.88 1.28-15.36 3.84a32.576 32.576 0 0 0-16.64 28.16v320c0 11.52 6.4 22.4 16.64 28.16 10.24 5.76 22.4 5.12 32.64-0.64l256-160c9.6-5.76 15.36-16 15.36-26.88s-5.76-21.12-15.36-26.88l-256-160c-5.12-3.2-10.88-5.12-16.64-5.12z m32 294.4v-204.8L621.44 384 457.6 486.4z"  horiz-adv-x="1024" />
      
      <glyph glyph-name="shaixuan1" unicode="&#59230;" d="M920.96 800a32.32 32.32 0 0 1-29.44 19.2H132.48c-12.8 0-24.32-7.68-29.44-19.2a32.64 32.64 0 0 1 5.76-34.56l295.68-322.56v-364.8c0-8.32 3.2-16 8.96-22.4l151.04-156.8c6.4-6.4 14.72-9.6 23.04-9.6 3.84 0 8.32 0.64 12.16 2.56 12.16 5.12 19.84 16.64 19.84 29.44V443.52l295.68 322.56a32.64 32.64 0 0 1 5.76 34.56z"  horiz-adv-x="1024" />
      
      <glyph glyph-name="Towing" unicode="&#59225;" d="M448 695.04c0-35.2-28.8-64-64-64s-64 28.8-64 64 28.8 64 64 64 64-28.8 64-64M704 695.04c0-35.2-28.8-64-64-64s-64 28.8-64 64 28.8 64 64 64 64-28.8 64-64M448 384c0-35.2-28.8-64-64-64s-64 28.8-64 64 28.8 64 64 64 64-28.8 64-64M704 384c0-35.2-28.8-64-64-64s-64 28.8-64 64 28.8 64 64 64 64-28.8 64-64M448 72.96c0-35.2-28.8-64-64-64s-64 28.8-64 64 28.8 64 64 64 64-28.8 64-64M704 72.96c0-35.2-28.8-64-64-64s-64 28.8-64 64 28.8 64 64 64 64-28.8 64-64"  horiz-adv-x="1024" />
      
      <glyph glyph-name="a-Showhighlight" unicode="&#59224;" d="M862.08 576a32.192 32.192 0 0 1-14.72 19.2L419.2 842.88a32.384 32.384 0 0 1-24.32 3.2c-8.32-2.56-15.36-7.68-19.2-14.72L199.04 525.44c-8.96-15.36-3.84-34.56 11.52-43.52l33.28-19.2L153.6 306.56c-4.48-7.68-5.12-16-3.2-24.32 2.56-8.32 7.68-15.36 14.72-19.2l58.24-33.92-64.64-112c-5.76-9.6-5.76-21.76 0-31.36 5.76-9.6 16-16 26.88-16.64l162.56-4.48h0.64c11.52 0 21.76 5.76 27.52 16l26.24 44.8 68.48-39.68a31.68 31.68 0 0 1 43.52 11.52l90.24 156.16 33.28-19.2c5.12-2.56 10.24-4.48 16-4.48 2.56 0 5.76 0 8.32 1.28 8.32 2.56 15.36 7.68 19.2 14.72l176.64 305.92c4.48 7.68 5.12 16 3.2 24.32z m-531.2-447.36l-89.6 2.56 37.12 64.64 68.48-39.68-16-27.52z m144.64 28.8L224.64 302.08l74.24 128 72.32-42.24 177.92-103.04-74.24-128z m167.04 148.48l-33.28 19.2-285.44 165.12-53.76 31.36 144.64 250.88 373.12-215.04-144.64-250.88zM160.64-1.92h711.04v-64H160.64z"  horiz-adv-x="1024" />
      
      <glyph glyph-name="ARTICLE" unicode="&#59223;" d="M894.08 572.16L627.2 824.96a32.384 32.384 0 0 1-23.04 8.96H166.4c-17.92 0-32.64-14.72-32.64-32.64v-832c0-17.92 14.72-32.64 32.64-32.64h705.92c17.92 0 32.64 14.72 32.64 32.64V548.48c0 9.6-3.84 17.92-10.88 23.68zM636.16 726.4l153.6-145.28h-153.6V726.4z m202.88-724.48h-640V769.28h371.84v-220.8c0-17.92 14.72-32.64 32.64-32.64h235.52v-513.28zM267.52 639.36h253.44v-64H267.52zM265.856 354.048l0.32 67.2 508.8-2.304-0.32-67.2zM265.6 202.24h508.8v-67.2H265.6z"  horiz-adv-x="1024" />
      
      <glyph glyph-name="Descending" unicode="&#59221;" d="M870.4 319.36l-380.8-367.36-353.92 367.36h244.48s-10.88 338.56 162.56 446.72c140.16 87.04 344.32 34.56 344.32 34.56S761.6 836.48 641.28 684.8c-103.04-129.92-51.84-360.32-51.84-360.32l280.32-5.12z"  horiz-adv-x="1024" />
      
      <glyph glyph-name="a-Uploadfolder" unicode="&#59220;" d="M96.64 481.92v-500.48c0.64-9.6 11.52-17.28 23.68-16.64h784.64c12.16 0 23.04 7.04 23.68 16.64V464.64c-1.28 9.6-12.16 17.28-24.32 16.64H96.64zM960 467.2V611.8399999999999c0 17.92-14.08 32-32 32H555.52L480.64 787.2a31.936 31.936 0 0 1-28.16 17.28H96.64c-17.92 0-32-14.08-32-32V-21.120000000000005c2.56-26.24 26.24-46.08 53.12-46.08h785.28c29.44-2.56 55.04 18.56 57.6 48.64V467.2zM128.64 740.48h304l74.88-143.36c5.76-10.88 16.64-17.28 28.16-17.28H896v-66.56H128.64V740.48z m0-743.68V449.28H896v-452.48H128.64zM674.56 264.96000000000004L535.68 403.84c-12.8 12.8-32.64 12.8-45.44 0L350.72 264.32000000000005c-12.8-12.8-12.8-32.64 0-45.44a31.04 31.04 0 0 1 44.8 0L480 303.36v-234.88c0-17.92 14.08-32 32-32s32 14.08 32 32V304.64l84.48-84.48a31.04 31.04 0 0 1 44.8 0c12.8 12.8 12.8 32.64 0 45.44z"  horiz-adv-x="1024" />
      
      <glyph glyph-name="Language3" unicode="&#59218;" d="M512 864c264.96 0 480-215.04 480-480s-215.04-480-480-480S32 119.04 32 384 247.04 864 512 864m199.04-126.08c-3.2-7.04-7.04-14.72-10.88-22.4l-7.04-14.72c-39.68-77.44-84.48-123.52-144.64-123.52-10.88 0-21.76 0-32.64-2.56l-4.48-1.28v-10.88l1.28-5.76 1.28-7.04v-3.84l3.2-8.32c0-1.28 0.64-3.2 1.28-4.48l3.2-10.24c1.28-3.2 2.56-7.04 3.84-10.88 24.32-53.76 10.24-116.48-33.28-155.52-32-30.08-82.56-28.16-112.64 3.84-7.68 8.32-13.44 17.92-17.28 28.16l-7.04 17.28-5.76 14.72-3.2 8.32-4.48 8.96-3.84 7.04-1.28 2.56-2.56 4.48a25.088 25.088 0 0 1-13.44 10.88h-40.32c-21.76-1.92-43.52 4.48-61.44 16.64-27.52 24.32-33.92 64.64-14.72 96l1.92 5.12c12.8 20.48 10.24 46.08-5.12 64a405.888 405.888 0 0 1 49.28-572.16 407.232 407.232 0 0 1 366.08-81.92c5.12 32.64-10.24 65.28-39.04 81.28l-4.48 3.2c-96.64 67.2-101.12 174.08-25.6 220.16 51.2 38.4 122.88 33.92 168.96-10.24l4.48-4.48c5.12-6.4 11.52-12.16 19.2-15.36H753.28l12.8 2.56c8.96 1.28 15.36 1.92 23.04 2.56 39.68 5.12 78.08-16.64 93.44-53.76 85.76 192 10.88 417.28-172.16 520.32m-125.44-504.32c-26.24-16-25.6-55.68 24.96-93.44l5.12-3.2c41.6-25.6 69.76-68.48 75.52-117.12a408.32 408.32 0 0 1 142.72 117.12L832 140.8l-2.56 10.24-1.28 4.48-2.56 8.32-1.28 3.84-2.56 7.04c-8.32 19.2-16 24.32-27.52 23.04h-7.04l-7.04-1.28-18.56-2.56h-8.96l-7.04-1.28h-16.64l-1.28 0.64c-24.32 5.12-46.08 18.56-61.44 37.76-20.48 21.76-48 21.76-81.28 1.92zM511.36 788.48c-94.08 0-185.6-32.64-257.92-92.8 35.84-37.12 44.8-92.16 23.68-138.24l-2.56-6.4c-1.92-4.48-3.2-8.96-4.48-13.44v-1.28H313.6c39.04 3.84 75.52-19.2 89.6-55.68l5.12-9.6 5.12-10.24 5.12-11.52 5.12-12.8 8.32-20.48c3.2-8.32 5.76-8.32 14.72-1.92 18.56 19.2 23.04 48 10.88 71.68-23.04 60.8-26.24 101.76-4.48 131.2 20.48 24.32 51.84 36.48 83.2 32.64h12.8c27.52 0 62.72 46.08 94.72 116.48C601.6 780.8 556.8 788.48 512 788.48z"  horiz-adv-x="1024" />
      
      <glyph glyph-name="Rise" unicode="&#59219;" d="M152.96 484.48L533.76 851.84l353.92-367.36h-244.48s10.88-338.56-162.56-446.72c-140.16-87.04-344.32-34.56-344.32-34.56s125.44-35.84 245.76 115.84c103.04 129.92 51.84 360.32 51.84 360.32L153.6 484.48z"  horiz-adv-x="1024" />
      
      <glyph glyph-name="XML" unicode="&#59216;" d="M925.76 623.04V-64h-704V832h512.96l191.04-208.96zM925.76-80h-704c-8.96 0-16 7.04-16 16V832c0 8.96 7.04 16 16 16h512.96c4.48 0 8.64-1.92 11.84-5.12l191.04-208.96c2.56-2.88 4.16-6.72 4.16-10.88V-64c0-8.96-7.04-16-16-16z m-688 32h672V616.96L727.68 816H237.76v-864zM909.76 616.64h-182.08V816l182.08-199.36zM98.24 546.56m64 0l566.4 0q64 0 64-64l0-384q0-64-64-64l-566.4 0q-64 0-64 64l0 384q0 64 64 64ZM209.28 304.64l-60.16 80.64h50.56l22.72-34.24c5.44-7.68 10.24-15.68 16.96-26.24h1.28c5.44 10.24 10.24 18.56 15.04 26.24l21.44 34.24h48l-59.84-81.92 64-83.84H279.04l-25.6 36.8c-5.76 8.64-11.2 17.28-17.92 27.2h-1.28c-5.76-10.24-11.2-18.88-16.64-27.2l-24.32-36.8h-48l63.68 85.44zM337.6 215.36H277.12l-26.56 38.4c-4.8 7.36-9.6 14.72-15.04 22.72-4.8-8.32-9.6-16-14.08-22.72l-25.6-38.72H137.6l66.56 89.6-63.04 84.48H201.6l24-36.16c3.84-5.44 7.36-10.88 11.52-17.28l2.56-4.16c4.48 8 8.32 14.72 12.8 21.44l22.72 36.16h57.92l-62.72-86.08 67.2-88z m-56.32 8h40.32l-60.8 80 1.92 2.56 55.36 75.84H280.32l-20.16-32.64c-5.12-8-9.6-16-15.04-25.92l-1.28-2.24h-5.76l-6.72 10.56c-3.84 6.4-7.36 11.84-11.2 17.28l-21.76 32.64H158.08l56.96-76.48-60.8-81.6h38.08l23.04 34.88c5.12 8 10.56 16.64 16.32 27.2l1.28 1.92h5.76l4.16-6.4c5.44-8.32 9.92-15.36 14.72-22.72l24.32-34.88zM364.48 385.28h50.24l38.72-77.76c4.8-10.24 9.28-21.12 13.76-31.68h1.28c4.8 10.56 8.96 21.44 13.76 31.68l37.76 77.76h50.56v-166.08h-41.6v69.44c0 15.68 3.52 38.72 6.08 54.4h-1.6l-18.56-39.04L480 234.24h-25.92l-35.2 69.76-18.24 39.04h-1.28c2.24-15.68 5.76-38.72 5.76-54.4v-69.44h-40.64v166.08zM574.72 215.36h-49.6v73.28c0 9.28 1.28 21.44 2.88 32.96l-9.28-19.52-36.16-72h-31.04l-36.48 72-8.64 18.56c1.28-11.2 2.56-23.04 2.56-32.32v-73.28h-48.64v174.08h56.64l1.28-2.24 38.72-77.76c2.88-6.08 5.76-12.48 8.32-18.88l2.56-6.08c1.6 3.52 3.2 7.04 4.48 10.56 1.92 4.8 4.16 9.6 6.08 14.4l39.04 80.32h56.96v-174.08z m-41.6 8h33.6v158.08h-43.84l-36.8-75.52c-1.92-4.48-4.16-9.28-6.08-14.08-2.56-5.76-4.8-11.84-7.68-17.6l-0.96-2.24h-6.72l-0.96 2.24c-1.92 4.16-3.84 8.64-5.44 13.12-2.56 6.4-5.44 12.48-8.32 18.56l-37.76 75.52h-43.84v-158.08h32.64v65.28c0 15.68-3.52 39.68-5.76 53.76l-0.64 4.48h8.32l19.2-41.28 34.24-67.52h21.12l33.92 67.52 19.52 41.28h8.64l-0.64-4.8c-2.56-15.68-6.08-38.72-6.08-53.76v-65.28zM624.32 385.28h45.44v-138.24h92.48v-27.84h-137.92v166.08zM766.4 215.36h-145.92v174.08h53.44v-138.24h92.48v-35.84z m-137.92 8h129.92v19.84h-92.48v138.24h-37.44v-158.08z"  horiz-adv-x="1024" />
      
      <glyph glyph-name="JSON" unicode="&#59217;" d="M925.76 624.32v-687.04h-704v896h512.96l191.04-208.96zM925.76-78.72h-704c-8.96 0-16 7.04-16 16v896c0 8.96 7.04 16 16 16h512.96c4.48 0 8.64-1.92 11.84-5.12l191.04-208.96c2.56-2.88 4.16-6.72 4.16-10.88v-687.04c0-8.96-7.04-16-16-16z m-688 32h672V618.24l-182.08 199.04H237.76v-864zM909.76 617.92h-182.08V817.28l182.08-199.36zM98.24 547.84m64 0l566.4 0q64 0 64-64l0-384q0-64-64-64l-566.4 0q-64 0-64 64l0 384q0 64 64 64ZM235.84 381.76v-165.44l-25.6-18.56H152.32l-25.6 18.56v64.32h32v-59.52h45.44v137.6H149.44v23.36h86.72zM211.52 193.6H151.04l-0.96 0.64-27.2 19.84v70.4h40v-59.52h37.44v129.6H145.6v31.36h94.72v-171.52l-28.16-20.8zM153.6 201.6h55.36l23.04 16.64V377.6H153.28v-15.36H208v-145.6H154.56v59.52h-24v-58.24l23.04-16.64zM373.44 321.92v40.64H298.24v-60.8h81.92l25.28-18.56v-66.88l-25.28-18.56H292.16l-25.6 18.56V259.2h32v-38.08h75.2V278.4H292.16l-25.6 18.56v70.4l25.28 18.56h88.32l25.28-18.56v-45.44h-32zM381.44 193.6H290.56l-0.96 0.64-27.2 19.84v48.64h40v-38.08h67.2v49.28H290.88l-28.48 20.48v74.56l27.84 20.8h91.2l27.84-20.8v-51.2h-40V358.4h-67.2v-52.8h79.04l27.84-20.48v-70.72l-27.84-20.8z m-88 8h85.44l22.72 16.64v62.72l-22.72 16.64H294.4v68.8h83.2v-40.64h24v39.36l-22.72 16.64H293.12l-22.72-16.64v-66.24l23.04-16.64h84.16v-65.28H294.4v38.08h-24v-36.8l23.04-16.64zM575.36 216.32l-25.28-18.56h-88l-25.6 18.56v146.88l25.28 18.56h88.32l25.28-18.56v-146.88z m-32 4.48v137.6h-75.2v-137.6h75.2zM551.36 193.6h-90.88l-0.96 0.64-27.2 19.84v151.04l27.84 20.8h91.2l27.84-20.8v-151.04l-27.84-20.8z m-88 8h85.44l22.72 16.64v142.72l-22.72 16.64h-85.76l-22.72-16.64v-142.72l23.04-16.64z m84.16 15.36h-83.2v145.6h83.2v-145.6z m-75.2 8h67.2v129.6h-67.2v-129.6zM637.76 197.76h-32v184h32.64l77.44-130.24v130.24h32v-184h-29.44l-80.64 134.72v-134.72zM752 193.6h-35.84l-74.56 124.16v-124.16H601.6v192h39.04l1.28-1.92 70.08-117.76v119.68h40v-192z m-31.36 8h23.36v176h-24v-140.8l-83.84 140.8h-26.24v-176h24v144.96l87.04-144.96z"  horiz-adv-x="1024" />
      
      <glyph glyph-name="Guide" unicode="&#59207;" d="M512-96C247.04-96 32 119.04 32 384S247.04 864 512 864s480-215.04 480-480-215.04-480-480-480z m0 896C282.88 800 96 613.12 96 384s186.88-416 416-416 416 186.88 416 416S741.12 800 512 800zM760.96 632.96a33.92 33.92 0 0 1-35.2 7.04L408.96 504.32s-2.56-1.92-3.2-2.56c-1.92-1.28-4.48-2.56-5.76-4.48a35.2 35.2 0 0 1-4.48-5.76c-0.64-1.28-1.92-1.92-2.56-3.2l-135.68-316.8a31.36 31.36 0 0 1 7.04-35.2c6.4-6.4 14.08-9.6 22.4-9.6 4.48 0 8.32 0.64 12.8 2.56l316.8 135.68s2.56 1.92 3.2 2.56c1.92 1.28 4.48 2.56 5.76 4.48a35.2 35.2 0 0 1 4.48 5.76c0.64 1.28 1.92 1.92 2.56 3.2L768 597.76a31.36 31.36 0 0 1-7.04 35.2z m-414.08-414.08l85.76 199.68 113.92-113.92-199.68-85.76z m245.12 130.56L478.08 463.36l199.68 85.76-85.76-199.68z"  horiz-adv-x="1024" />
      
      <glyph glyph-name="star1" unicode="&#59206;" d="M511.6802 832.039975l114.488445-333.87133L959.400375 384.3198 626.168645 269.831355 511.6802-63.400375 397.191755 269.831355 63.960025 384.3198l333.23173 113.848845L511.6802 832.039975z"  horiz-adv-x="1024" />
      
      <glyph glyph-name="Overviews" unicode="&#59205;" d="M282.24 544l-27.52 16-32-55.04 27.52-16s52.48-29.44 108.16-60.16c48-26.88 99.84-55.68 125.44-69.76v-293.76h64V359.04c22.4 12.8 64.64 36.48 107.52 60.16 59.52 33.28 119.68 67.2 123.52 69.12l28.16 15.36-30.72 56.32-28.16-15.36c-3.84-1.92-64-35.84-124.16-69.76-42.88-24.32-85.76-48-108.16-60.8-25.6 14.08-77.44 43.52-126.08 70.4-54.4 30.08-104.32 58.24-106.88 59.52zM912 633.6l-384 221.44a31.808 31.808 0 0 1-32 0l-384-221.44c-9.6-5.76-16-16-16-27.52v-443.52c0-11.52 6.4-21.76 16-27.52l384-221.44c5.12-2.56 10.24-4.48 16-4.48s10.88 1.28 16 4.48l384 221.44c9.6 5.76 16 16 16 27.52V605.44c0 11.52-6.4 21.76-16 27.52z m-48-452.48L512-22.4l-352 203.52V587.52L512 790.4l352-203.52v-406.4z"  horiz-adv-x="1024" />
      
      <glyph glyph-name="a-yyq-icon-5_tingzhi" unicode="&#59204;" d="M384.64 512m32.64 0l190.72 0q32.64 0 32.64-32.64l0-190.72q0-32.64-32.64-32.64l-190.72 0q-32.64 0-32.64 32.64l0 190.72q0 32.64 32.64 32.64ZM512.64-96C247.68-96 32.64 119.03999999999996 32.64 384S247.68 864 512.64 864s480-215.04 480-480-215.04-480-480-480z m0 896c-229.76 0-416-186.88-416-416s186.88-416 416-416 416 186.88 416 416-186.88 416-416 416z"  horiz-adv-x="1024" />
      
      <glyph glyph-name="a-Bottomalignment" unicode="&#59202;" d="M168.32 30.72h687.36v-64H168.32zM749.44 321.28L704 366.72l-160-160V801.28h-64v-594.56L320 366.72l-45.44-45.44L512 84.48l237.44 236.8z"  horiz-adv-x="1024" />
      
      <glyph glyph-name="a-Topalignment" unicode="&#59203;" d="M168.32 801.28h687.36v-64H168.32zM274.56 446.72l45.44-45.44 160 160v-594.56h64V561.28l160-160 45.44 45.44L512 683.52l-237.44-236.8z"  horiz-adv-x="1024" />
      
      <glyph glyph-name="a-bgcolor" unicode="&#59192;" d="M176 428.8l305.28-305.92 305.28 305.92H176zM154.88-3.2h725.12v-64H154.88zM814.72 206.08l-45.44 45.44-45.44-45.44c-24.96-24.96-24.96-65.92 0-91.52s65.92-24.96 91.52 0 24.96 65.92 0 91.52zM809.6 451.2L504.32 756.48h-0.64L425.6 833.92l-45.44-45.44 55.68-55.68-282.24-281.6c-12.8-12.8-12.8-32.64 0-45.44l305.28-305.28c5.76-5.76 14.08-9.6 22.4-9.6s16.64 3.2 22.4 9.6l305.28 305.28c12.8 12.8 12.8 32.64 0 45.44z m-327.68-282.88L221.44 428.8l259.84 259.84 260.48-259.84-259.84-259.84z"  horiz-adv-x="1024" />
      
      <glyph glyph-name="a-Textcolor" unicode="&#59193;" d="M192 46.08h640v-64H192zM648.96 360.32h-275.2l-67.84-185.6H223.36l235.52 622.72h107.52l234.88-622.08h-85.12l-67.2 185.6z m-26.24 71.68L517.76 721.28h-10.88L400 432h222.08z"  horiz-adv-x="1024" />
      
      <glyph glyph-name="a-Texttranslation" unicode="&#59194;" d="M814.08-36.48H123.52c-17.92 0-32 14.08-32 32V772.48c0 17.92 14.08 32 32 32h604.16c17.92 0 32-14.08 32-32v-605.44c0-17.92-14.08-32-32-32s-32 14.08-32 32V740.48H155.52v-712.96h658.56c17.92 0 32-14.08 32-32s-14.08-32-32-32zM821.76-36.48h-16c-60.8 0-110.08 49.28-110.08 110.08V513.28c0 17.92 14.08 32 32 32h94.08c60.8 0 110.08-49.28 110.08-110.08v-360.96c0-60.8-49.28-110.08-110.08-110.08z m-62.08 517.76v-407.68c0-25.6 20.48-46.08 46.08-46.08h16c25.6 0 46.08 20.48 46.08 46.08V435.2c0 25.6-20.48 46.08-46.08 46.08h-62.08zM637.44 152.32L464 611.2l-1.92 4.48H374.4l-172.16-453.76-3.84-10.24h75.52l49.28 133.76h188.16l48.64-133.76h77.44zM487.68 352.64H348.16l70.4 190.72 69.12-190.72z"  horiz-adv-x="1024" />
      
      <glyph glyph-name="Stroke" unicode="&#59195;" d="M849.28 1.919999999999959h-99.2c-7.68 0-14.72 5.12-17.28 12.16l-74.24 204.16H363.52l-74.88-204.16c-2.56-7.68-9.6-12.16-17.28-12.16h-96c-6.4 0-12.16 3.2-15.36 8.32a18.496 18.496 0 0 0-1.92 17.28L432 753.92c2.56 7.04 9.6 12.16 17.28 12.16h125.44c7.68 0 14.72-5.12 17.28-12.16l273.92-726.4c1.92-5.76 1.28-12.16-1.92-17.28-3.2-5.12-8.96-8.32-15.36-8.32z m-86.4 37.12h59.52L562.56 728.3199999999999H462.72L201.6 39.67999999999995h56.32l74.88 204.16c2.56 7.68 9.6 12.16 17.28 12.16h321.28c7.68 0 14.72-5.12 17.28-12.16l74.24-204.16z m-122.24 263.04H381.44a18.88 18.88 0 0 0-17.28 25.6L488.96 665.6c2.56 7.68 9.6 12.16 17.28 12.16h12.8c7.68 0 14.72-5.12 17.28-12.16l122.24-337.92c1.92-5.76 1.28-12.16-2.56-17.28s-8.96-7.68-15.36-7.68zM407.68 339.20000000000005h206.08l-102.4 282.24L407.68 339.20000000000005z"  horiz-adv-x="1024" />
      
      <glyph glyph-name="a-tonecolour" unicode="&#59196;" d="M316.8-1.92h-0.64a32 32 0 0 0-31.36 29.44l-20.48 264.32-17.92-172.8a31.872 31.872 0 1 0-62.72-5.12L112 385.28h-31.36c-17.92 0-32 14.08-32 32s14.08 32 32 32h55.68c14.72 0 27.52-9.6 30.72-23.68l33.28-126.08 35.84 351.36c1.92 16.64 16.64 27.52 32 28.8 16.64 0 30.08-12.8 31.36-29.44l23.68-306.56 26.24 207.36c1.92 16 15.36 28.16 32 28.16s29.44-12.16 32-28.16L442.88 320l40.32 108.8c4.48 12.8 16.64 21.12 30.08 21.12h56.32c17.92 0 32-14.08 32-32s-14.08-32-32-32h-33.92l-77.44-209.92a31.36 31.36 0 0 0-33.92-20.48 32.64 32.64 0 0 0-28.16 27.52L382.08 294.4l-33.92-268.16c-1.92-16-16-28.16-32-28.16zM631.68-86.4c-51.84 0-93.44 14.72-123.52 44.16-55.68 55.04-51.84 141.44-50.56 169.6 0.64 17.92 16.64 32.64 33.28 30.08 17.92-0.64 31.36-16 30.08-33.28-1.28-21.12-4.48-85.76 31.36-120.96 19.84-19.84 51.84-28.16 94.08-25.6 124.16 8.32 122.88 242.56 122.88 244.48 9.6 86.4 33.28 118.4 56.32 149.76 22.4 30.08 44.8 61.44 60.8 154.88 12.16 72.32-19.2 128-48 161.92-52.48 62.72-137.6 101.12-220.8 101.12-69.12 0-134.4-26.24-184.96-73.6-12.8-12.16-33.28-11.52-45.44 1.28-12.16 12.8-11.52 33.28 1.28 45.44C450.56 821.76 531.84 854.4 617.6 854.4c101.76 0 205.44-47.36 270.08-124.16 53.12-62.72 74.88-138.24 62.08-213.76-18.56-108.16-47.36-147.2-72.32-181.76-20.48-27.52-36.48-49.92-44.16-114.56 0-7.68 3.84-293.12-182.4-305.28-7.04 0-13.44-0.64-19.84-0.64zM604.8 190.08c-12.16 0-24.32 1.92-37.12 5.76a32 32 0 0 0-21.12 39.68c5.12 16.64 23.04 26.88 39.68 21.12 17.28-5.12 30.72-3.84 40.96 5.12 14.08 11.52 21.12 35.84 18.56 62.72-5.12 50.56-1.92 93.44 32 150.4 14.72 24.32 25.6 62.08 17.92 92.16-4.48 17.92-16 31.36-33.28 41.6-48 27.52-115.84-35.2-116.48-35.84-12.8-12.16-33.28-11.52-45.44 1.28-12.16 12.8-11.52 33.28 1.28 45.44 3.84 3.84 101.76 96 192 44.8 32.64-18.56 55.04-46.08 64-80.64 13.44-51.2-3.84-106.88-24.96-141.44-24.96-41.6-27.52-69.76-23.04-110.72 5.12-48.64-10.24-93.44-40.96-118.4-17.92-14.72-39.68-22.4-63.36-22.4z"  horiz-adv-x="1024" />
      
      <glyph glyph-name="retreat" unicode="&#59197;" d="M512-96C247.04-96 32 119.04 32 384S247.04 864 512 864s480-215.04 480-480-215.04-480-480-480z m0 896C282.88 800 96 613.12 96 384s186.88-416 416-416 416 186.88 416 416S741.12 800 512 800zM471.68 170.88L277.12 365.44c-12.8 12.8-12.8 32.64 0 45.44l194.56 194.56 45.44-45.44L345.6 388.48l171.52-171.52-45.44-45.44zM710.4 170.88L515.84 365.44c-12.8 12.8-12.8 32.64 0 45.44l194.56 194.56 45.44-45.44-171.52-171.52 171.52-171.52-45.44-45.44z"  horiz-adv-x="1024" />
      
      <glyph glyph-name="advance" unicode="&#59198;" d="M512-96C247.04-96 32 119.04 32 384S247.04 864 512 864s480-215.04 480-480-215.04-480-480-480z m0 896C282.88 800 96 613.12 96 384s186.88-416 416-416 416 186.88 416 416S741.12 800 512 800zM577.92 163.2l-45.44 45.44L704 380.16 532.48 551.68l45.44 45.44 194.56-194.56c12.8-12.8 12.8-32.64 0-45.44l-194.56-194.56zM339.84 163.2l-45.44 45.44 171.52 171.52L294.4 551.68l45.44 45.44 194.56-194.56c12.8-12.8 12.8-32.64 0-45.44l-194.56-194.56z"  horiz-adv-x="1024" />
      
      <glyph glyph-name="a-leftjustify" unicode="&#59199;" d="M96 755.84h512v-64h-512zM96 529.28h832v-64h-832zM96 302.72h512v-64h-512zM96 76.16h832v-64h-832z"  horiz-adv-x="1024" />
      
      <glyph glyph-name="a-aligncenter" unicode="&#59200;" d="M256 755.84h512v-64H256zM96 529.28h832v-64h-832zM256 302.72h512v-64H256zM96 76.16h832v-64h-832z"  horiz-adv-x="1024" />
      
      <glyph glyph-name="a-rightalignment" unicode="&#59201;" d="M416 755.84h512v-64h-512zM96 529.28h832v-64h-832zM416 302.72h512v-64h-512zM96 76.16h832v-64h-832z"  horiz-adv-x="1024" />
      
      <glyph glyph-name="loadlibrary" unicode="&#59191;" d="M112-13.44a31.36 31.36 0 0 0-32 30.08l-38.4 710.4c-0.64 17.28 12.16 32 29.44 33.92l241.28 21.12c9.6 0 19.84-3.2 26.88-10.88 7.04-7.68 9.6-17.92 7.68-27.52l-40.32-190.08 124.8-174.72c4.48-6.4 7.04-14.72 5.76-23.04l-21.76-158.72 146.56 227.2-106.24 102.4a33.408 33.408 0 0 0-8.96 31.36l52.48 200.32c3.84 14.72 16 25.6 32.64 23.68l421.12-18.56c17.28-0.64 31.36-15.36 30.72-33.28l-28.8-712.96c0-8.32-3.84-16.64-10.24-22.4s-14.72-8.96-23.04-8.32l-563.2 24.32-241.92-23.68h-3.2z m297.6 85.76l481.28-20.48 26.24 648.96-363.52 16-40.96-157.44 112-107.52c10.88-10.88 12.8-27.52 4.48-40.32l-219.52-339.2z m-302.72 627.2l35.2-646.4 190.08 18.56 38.4 279.68-125.44 176a31.616 31.616 0 0 0-5.12 24.96l34.56 161.28-167.68-14.72zM742.039639 135.47407m-31.993555-0.642238l-3.199355-0.064223q-31.993555-0.642238-32.635793 31.351316l-0.064224 3.199355q-0.642238 31.993555 31.351317 32.635793l3.199355 0.064224q31.993555 0.642238 32.635793-31.351317l0.064223-3.199355q0.642238-31.993555-31.351316-32.635793ZM790.4 632.96c-3.84 0.64-7.04 1.28-10.88 1.28a60.8 60.8 0 0 1-60.8-56.32L697.6 307.2c-1.28-16.64 10.24-32.64 27.52-35.2s3.84 0 5.76 0c14.72 0 27.52 10.24 32 24.32s0 1.92 0 1.92v3.2l72.96 256.64a61.184 61.184 0 0 1-48 76.8z"  horiz-adv-x="1024" />
      
      <glyph glyph-name="Bypass" unicode="&#59187;" d="M933.76 94.72a29.248 29.248 0 0 1-7.04 10.24l-108.16 108.16-45.44-45.44 53.12-53.12H646.4L545.28 385.28 633.6 621.44h197.12l-57.6-62.72 47.36-43.52 106.88 116.48s1.92 3.84 3.2 5.12c0.64 1.28 1.92 2.56 2.56 4.48 3.2 7.68 3.2 16 0 23.68-0.64 1.92-1.92 3.2-2.56 4.48-1.28 1.92-1.92 3.84-3.2 5.12l-106.88 116.48-47.36-43.52 57.6-62.72H611.84c-13.44 0-25.6-8.32-30.08-20.48l-70.4-188.16-70.4 188.16a31.168 31.168 0 0 1-30.08 20.48H192.64l57.6 62.72-47.36 43.52L96 674.56s-1.92-3.84-3.2-5.12c-0.64-1.28-1.92-2.56-2.56-4.48-3.2-7.68-3.2-16 0-23.68 0.64-1.92 1.92-3.2 2.56-4.48 1.28-1.92 1.92-3.84 3.2-5.12l106.88-116.48 47.36 43.52-57.6 62.72h197.12l88.32-236.16-101.12-270.72H196.48l53.12 53.12-45.44 45.44-108.16-108.16s-5.12-6.4-7.04-10.24a32 32 0 0 1 0-24.32c1.92-3.84 3.84-7.68 7.04-10.24l108.16-108.16 45.44 45.44-53.76 53.76h201.6c13.44 0 25.6 8.32 30.08 20.48l83.2 222.72 83.2-222.72c4.48-12.8 16.64-20.48 30.08-20.48h201.6l-53.76-53.76 45.44-45.44 108.16 108.16s5.12 6.4 7.04 10.24a32 32 0 0 1 0 24.32z"  horiz-adv-x="1024" />
      
      <glyph glyph-name="drag" unicode="&#59188;" d="M510.08-108.8c-9.6 0-19.2 4.48-24.96 12.16l-161.92 204.16a32.64 32.64 0 0 0-3.84 33.92 32 32 0 0 0 28.8 17.92h83.84V310.4H287.36v-81.92a32 32 0 0 0-17.92-28.8 32.64 32.64 0 0 0-33.92 3.84L31.36 365.44a31.552 31.552 0 0 0 0 49.92l204.16 161.92a32.64 32.64 0 0 0 33.92 3.84 32 32 0 0 0 17.92-28.8v-81.92h144.64V609.28H348.16a32 32 0 0 0-28.8 17.92 32.64 32.64 0 0 0 3.84 33.92L485.12 864.64c12.16 15.36 37.76 15.36 49.92 0l161.92-204.16c7.68-9.6 8.96-23.04 3.84-33.92a32 32 0 0 0-28.8-17.92H591.36v-138.88h144.64V551.68a32 32 0 0 0 17.92 28.8 32.64 32.64 0 0 0 33.92-3.84l204.16-161.92a31.552 31.552 0 0 0 0-49.92l-204.16-161.92c-9.6-7.68-23.04-8.96-33.92-3.84s-17.92 16.64-17.92 28.8V309.76H591.36v-151.04h80.64a32 32 0 0 0 28.8-17.92c5.12-10.88 3.84-24.32-3.84-33.92l-161.92-204.16c-5.76-7.68-15.36-12.16-24.96-12.16z m-96 204.16l96-120.96 96 120.96h-46.08c-17.92 0-32 14.08-32 32V342.4c0 17.92 14.08 32 32 32h208.64c17.92 0 32-14.08 32-32v-48l120.96 96-120.96 96v-48c0-17.92-14.08-32-32-32H560c-17.92 0-32 14.08-32 32V640.64c0 17.92 14.08 32 32 32h46.08L510.08 793.6l-96-120.96h49.28c17.92 0 32-14.08 32-32v-202.88c0-17.92-14.08-32-32-32H255.36c-17.92 0-32 14.08-32 32v48L102.4 389.76l120.96-96v48c0 17.92 14.08 32 32 32h208.64c17.92 0 32-14.08 32-32v-215.04c0-17.92-14.08-32-32-32h-49.28z"  horiz-adv-x="1024" />
      
      <glyph glyph-name="Loading2" unicode="&#59189;" d="M512-96C247.04-96 32 119.04 32 384S247.04 864 512 864c183.04 0 347.52-101.76 429.44-265.6 33.28-66.56 50.56-138.88 50.56-214.4h-64c0 65.28-14.72 128-43.52 185.6A414.272 414.272 0 0 1 512 800C282.88 800 96 613.12 96 384s186.88-416 416-416v-64z"  horiz-adv-x="1024" />
      
      <glyph glyph-name="Loading1" unicode="&#59190;" d="M528 776.96m-84.48 0a84.48 84.48 0 1 1 168.96 0 84.48 84.48 0 1 1-168.96 0ZM245.12 661.76m-81.28 0a81.28 81.28 0 1 1 162.56 0 81.28 81.28 0 1 1-162.56 0ZM126.72 380.8m-78.08 0a78.08 78.08 0 1 1 156.16 0 78.08 78.08 0 1 1-156.16 0ZM241.92 97.92m-74.88 0a74.88 74.88 0 1 1 149.76 0 74.88 74.88 0 1 1-149.76 0ZM522.88-20.48m-67.84 0a67.84 67.84 0 1 1 135.68 0 67.84 67.84 0 1 1-135.68 0ZM805.76 94.72m-60.8 0a60.8 60.8 0 1 1 121.6 0 60.8 60.8 0 1 1-121.6 0ZM924.16 375.68m-50.56 0a50.56 50.56 0 1 1 101.12 0 50.56 50.56 0 1 1-101.12 0ZM809.6 658.56m-33.92 0a33.92 33.92 0 1 1 67.84 0 33.92 33.92 0 1 1-67.84 0Z"  horiz-adv-x="1024" />
      
      <glyph glyph-name="a-yyq-icon-5_fuzhi" unicode="&#59186;" d="M896 800H332.8c-19.2 0-32-12.8-32-32v-179.2H128c-19.2 0-32-12.8-32-32v-563.2c0-19.2 12.8-32 32-32h563.2c19.2 0 32 12.8 32 32v179.2H896c19.2 0 32 12.8 32 32V768c0 19.2-12.8 32-32 32z m-32-563.2h-140.8v320c0 19.2-12.8 32-32 32H364.8V736h499.2v-499.2z"  horiz-adv-x="1024" />
      
      <glyph glyph-name="a-yyq-icon-5_jinyong" unicode="&#59185;" d="M306.752 544.192l45.312 45.248 365.184-365.184-45.248-45.248zM512 864C247.04 864 32 648.96 32 384s215.04-480 480-480 480 215.04 480 480S776.96 864 512 864z m0-896c-229.12 0-416 186.88-416 416S282.88 800 512 800s416-186.88 416-416-186.88-416-416-416z"  horiz-adv-x="1024" />
      
      <glyph glyph-name="AI_1" unicode="&#59184;" d="M385.28 640l-170.88-454.4H294.4l30.08 86.4h175.36l30.08-86.4h80L439.04 640h-54.4z m-35.84-296.32l62.72 180.48 62.72-180.48H349.44zM670.08 640h76.16v-454.4h-76.16zM512 864C247.04 864 32 648.96 32 384s215.04-480 480-480 480 215.04 480 480S776.32 864 512 864z m0-896c-229.12 0-416 186.88-416 416S282.88 800 512 800s416-186.88 416-416-186.88-416-416-416z"  horiz-adv-x="1024" />
      
      <glyph glyph-name="recur" unicode="&#59183;" d="M192 764.16h640v-312.96h65.28v345.6c0 17.92-14.72 32.64-32.64 32.64H159.36c-17.92 0-32.64-14.72-32.64-32.64v-832c0-17.92 14.72-32.64 32.64-32.64h313.6v65.28H192V764.16zM260.48 634.24h510.72v-64H260.48zM515.84 414.72l-256.64 1.92-0.64-67.2 257.28-2.56V414.72zM259.2 197.12h192v-67.2h-192zM800.64 401.28a254.72 254.72 0 0 1-235.52-69.12c-99.84-99.84-99.2-262.4 1.28-362.24 48.64-48 112.64-74.88 181.12-74.88 67.84 0 131.84 26.88 180.48 75.52 48 48.64 74.88 112.64 74.88 181.12s-26.88 132.48-74.88 180.48c-34.56 35.2-78.72 58.88-126.72 69.12z m81.28-113.92c36.48-35.84 56.32-84.48 56.32-135.68s-19.84-99.2-56.32-136.32c-35.84-36.48-83.84-56.32-135.04-56.32a192 192 0 0 0-136.32 327.68c46.72 46.72 112.64 65.92 177.28 51.84 35.84-7.68 68.48-24.96 94.72-51.2zM714.24 287.36v-103.68H610.56v-64h103.68v-103.68h64v103.68h103.68v64h-103.68V287.36h-64z"  horiz-adv-x="1024" />
      
      <glyph glyph-name="yuliao1" unicode="&#59181;" d="M173.44 737.92h256v64h-288c-17.92 0-32-14.08-32-32v-288.64h64V737.92zM909.44 801.92H620.8v-64h256.64v-256.64h64V769.92c0 17.92-14.08 32-32 32zM173.44 290.56h-64v-288.64c0-17.92 14.08-32 32-32h288v64h-256V290.56zM877.44 33.92H620.8v-64h288.64c17.92 0 32 14.08 32 32V290.56h-64v-256.64zM237.44 647.68v-96c0-17.92 14.08-32 32-32h256c17.92 0 32 14.08 32 32v96c0 17.92-14.08 32-32 32h-256c-17.92 0-32-14.08-32-32z m64-32h192v-32h-192v32zM812.8 336v96c0 17.92-14.08 32-32 32H269.44c-17.92 0-32-14.08-32-32v-96c0-17.92 14.08-32 32-32h512c17.92 0 32 14.08 32 32z m-64 32H301.44v32h448v-32zM269.44 248.32c-17.92 0-32-14.08-32-32v-96c0-17.92 14.08-32 32-32h383.36c17.92 0 32 14.08 32 32v96c0 17.92-14.08 32-32 32H269.44z m351.36-96H301.44v32H620.8v-32z"  horiz-adv-x="1024" />
      
      <glyph glyph-name="Department" unicode="&#59182;" d="M555.52 224.64h320c17.92 0 32 14.08 32 32v192c0 17.92-14.08 32-32 32h-320c-17.92 0-32-14.08-32-32v-64h-185.6V516.48h128c17.92 0 32 14.08 32 32v256c0 17.92-14.08 32-32 32h-320c-17.92 0-32-14.08-32-32v-256c0-17.92 14.08-32 32-32h128v-462.72c0-17.92 14.08-32 32-32h217.6v-64c0-17.92 14.08-32 32-32h320c17.92 0 32 14.08 32 32v192c0 17.92-14.08 32-32 32h-320c-17.92 0-32-14.08-32-32v-64h-185.6V320.64h185.6v-64c0-17.92 14.08-32 32-32z m-377.6 355.84v192h256v-192h-256z m409.6-462.72h256v-128h-256v128z m0 298.88h256v-128h-256v128z"  horiz-adv-x="1024" />
      
      <glyph glyph-name="shuyu1" unicode="&#59180;" d="M165.12 737.92h256.64v64H133.12c-17.92 0-32-14.08-32-32v-288.64h64V737.92zM901.12 801.92H612.48v-64h256.64v-256.64h64V769.92c0 17.92-14.08 32-32 32zM165.12 290.56h-64v-288.64c0-17.92 14.08-32 32-32h288.64v64H165.12V290.56zM869.12 33.92H612.48v-64h288.64c17.92 0 32 14.08 32 32V290.56h-64v-256.64zM746.24 142.08l-188.8 499.2-1.92 5.12H460.16l-186.88-494.08-3.84-10.88h81.92l53.76 145.92h204.8l53.12-145.92h83.84zM583.04 360.32H431.36l76.8 208 75.52-208z"  horiz-adv-x="1024" />
      
      <glyph glyph-name="Blank" unicode="&#59179;" d="M867.84 783.36v-64H723.2v-768h-64v768H523.52v-768h-64V320H387.84c-128 0-231.68 103.68-231.68 231.68s103.68 231.68 231.68 231.68h480z"  horiz-adv-x="1024" />
      
      <glyph glyph-name="more_1" unicode="&#59170;" d="M512 695.04m-96 0a96 96 0 1 1 192 0 96 96 0 1 1-192 0ZM512 384m-96 0a96 96 0 1 1 192 0 96 96 0 1 1-192 0ZM512 72.96m-96 0a96 96 0 1 1 192 0 96 96 0 1 1-192 0Z"  horiz-adv-x="1024" />
      
      <glyph glyph-name="proofread" unicode="&#59171;" d="M956.8 249.6l-239.36-239.36-120.32 119.68-45.44-45.44 142.72-142.08a31.04 31.04 0 0 1 44.8 0l261.76 262.4-45.44 45.44zM192 764.16h640v-504.96h65.28v537.6c0 17.92-14.72 32.64-32.64 32.64H159.36c-17.92 0-32.64-14.72-32.64-32.64v-832c0-17.92 14.72-32.64 32.64-32.64h407.04v65.28H192V764.16zM260.48 634.24h510.72v-64H260.48zM258.816 348.864l0.32 67.2 508.8-2.304-0.32-67.2zM259.2 197.12h256.64v-67.2H259.2z"  horiz-adv-x="1024" />
      
      <glyph glyph-name="down2" unicode="&#59172;" d="M515.2 865.28C250.88 865.28 35.2 650.24 35.2 385.28s215.04-480 480-480 480 215.04 480 480-215.04 480-480 480z m0-896c-229.12 0-416 186.88-416 416s186.88 416 416 416 416-186.88 416-416-186.88-416-416-416zM569.6 257.92V616.96h-64v-358.4L392.32 371.84l-45.44-45.44 167.68-167.68a31.04 31.04 0 0 1 44.8 0l168.32 167.68-45.44 45.44-113.28-113.28z"  horiz-adv-x="1024" />
      
      <glyph glyph-name="qignchu" unicode="&#59173;" d="M933.76 347.52L726.4 467.2l160 277.12a32 32 0 0 1-11.52 43.52L723.2 875.52a32.384 32.384 0 0 1-24.32 3.2c-8.32-1.92-15.36-7.68-19.2-14.72l-160-277.12-207.36 119.68a31.552 31.552 0 0 1-43.52-11.52L176.64 536.32s0-1.92-0.64-2.56c0-0.64-1.28-1.28-1.28-1.92-14.72-39.68-40.96-105.6-51.84-124.16-14.08-24.96-64-85.76-81.92-106.88-5.76-7.04-8.32-16.64-7.04-26.24 1.92-9.6 7.04-17.28 15.36-22.4l110.08-63.36c10.88-6.4 24.96-5.76 35.2 1.92l51.84 37.76-13.44-55.68c-3.2-14.08 2.56-28.16 15.36-35.2l70.4-40.32c10.88-6.4 24.32-5.76 34.56 1.92l59.52 42.88-12.16-67.2c-2.56-13.44 3.84-26.88 15.36-33.28l85.12-49.28c10.88-6.4 24.96-5.76 35.2 1.92l56.96 41.6-12.16-64.64c-2.56-13.44 3.84-26.88 15.36-33.92l74.88-43.52c5.12-2.56 10.24-4.48 16-4.48 8.96 0 17.92 3.84 24.32 11.52 7.68 8.96 73.6 86.4 90.24 115.2 19.2 33.28 48 116.48 53.76 133.12l90.24 156.16c8.96 15.36 3.84 34.56-11.52 43.52z m-215.04 456.32l96.64-55.68-144-249.6-48 27.52-48 27.52 144 249.6z m-39.04-842.88l-32 18.56 23.04 122.24c2.56 12.8-3.2 26.24-14.08 33.28-10.88 7.04-25.6 6.4-35.84-1.28l-105.6-77.44-48 27.52 22.4 122.88a31.552 31.552 0 0 1-49.92 31.36l-107.52-76.8-32 18.56 28.16 117.12c3.2 12.8-1.92 26.88-13.44 33.92a31.744 31.744 0 0 1-36.48-0.64L172.8 252.8l-59.52 34.56c21.76 26.88 51.2 64.64 64 86.4 10.88 18.56 30.08 65.28 42.88 98.56l566.4-327.04c-11.52-32.64-30.08-80.64-40.96-99.84-8.32-14.08-40.32-53.76-65.92-85.12z m134.4 243.2L248.32 531.2l59.52 103.68 207.36-119.68 76.16-43.52 282.88-163.2-59.52-103.68z"  horiz-adv-x="1024" />
      
      <glyph glyph-name="up2" unicode="&#59174;" d="M512.64 865.28C248.32 865.28 32.64 650.24 32.64 385.28s215.04-480 480-480 480 215.04 480 480-215.04 480-480 480z m0-896c-229.12 0-416 186.88-416 416s186.88 416 416 416 416-186.88 416-416-186.88-416-416-416zM515.2 618.88a30.08 30.08 0 0 1-22.4-9.6L324.48 440.96l45.44-45.44 113.28 113.28v-358.4h64V510.08l113.28-113.28 45.44 45.44-167.68 168.32a32.64 32.64 0 0 1-22.4 9.6z"  horiz-adv-x="1024" />
      
      <glyph glyph-name="right2" unicode="&#59175;" d="M512.64 865.28C248.32 865.28 32.64 650.24 32.64 385.28s215.04-480 480-480 480 215.04 480 480-215.04 480-480 480z m0-896c-229.12 0-416 186.88-416 416s186.88 416 416 416 416-186.88 416-416-186.88-416-416-416zM569.6 573.44l-45.44-45.44 113.28-113.28h-358.4v-64h358.4l-113.28-113.28 45.44-45.44 167.68 167.68c12.8 12.8 12.8 32.64 0 45.44L569.6 572.8z"  horiz-adv-x="1024" />
      
      <glyph glyph-name="left2" unicode="&#59176;" d="M513.92 862.72C249.6 862.72 33.92 647.68 33.92 382.72s215.04-480 480-480 480 215.04 480 480-215.04 480-480 480z m0-896c-229.12 0-416 186.88-416 416s186.88 416 416 416 416-186.88 416-416-186.88-416-416-416zM503.04 530.56L457.6 576 289.28 408.32c-5.76-5.76-9.6-14.08-9.6-22.4s3.2-16.64 9.6-22.4l168.32-167.68 45.44 45.44-113.28 113.28h358.4v64H389.12l113.28 113.28z"  horiz-adv-x="1025" />
      
      <glyph glyph-name="runse" unicode="&#59177;" d="M983.04 346.88L749.44 531.2l19.2 296.96c0.64 13.44-5.76 25.6-17.28 32.64s-25.6 6.4-36.48-1.28L467.84 694.4 191.36 803.84a34.88 34.88 0 0 1-46.72-41.6l80.64-286.08-189.44-229.12a35.84 35.84 0 0 1-5.12-36.48c5.12-12.16 17.28-19.84 30.72-20.48l296.96-11.52 158.72-251.52c6.4-10.24 17.28-16 29.44-16h3.84c13.44 1.28 24.32 10.24 28.8 22.4l85.12 229.76-65.28 24.32-60.16-163.84-130.56 207.36a34.176 34.176 0 0 1-28.16 16l-245.12 9.6 156.8 188.8c7.04 8.96 9.6 20.48 6.4 32L231.68 713.6l227.84-90.88c10.88-4.48 22.4-3.2 32 3.2l204.16 136.32-16-244.48c-0.64-11.52 4.48-22.4 13.44-29.44l192.64-151.68-160.64-40.96 17.28-67.2 228.48 58.24c12.8 3.2 23.04 13.44 25.6 26.24 2.56 12.8-1.92 26.24-12.8 34.56zM606.08 253.248l49.024 41.152 279.744-333.44-49.024-41.088z"  horiz-adv-x="1024" />
      
      <glyph glyph-name="prompt" unicode="&#59178;" d="M512 695.04c-167.68 0-303.36-136.32-303.36-303.36S344.96 88.32 512 88.32s303.36 136.32 303.36 303.36S679.04 695.04 512 695.04z m0-550.4c-136.32 0-247.04 110.72-247.04 247.04S375.68 638.72 512 638.72s247.04-110.72 247.04-247.04-110.72-247.04-247.04-247.04zM403.84 63.36h216.32v-64H403.84zM435.84-26.88h152.32v-64H435.84zM146.56 423.68h-64c-17.92 0-32-14.08-32-32s14.08-32 32-32h64c17.92 0 32 14.08 32 32s-14.08 32-32 32zM211.84 601.6l-55.68 32a31.424 31.424 0 0 1-43.52-11.52c-8.96-15.36-3.84-34.56 11.52-43.52l55.68-32a31.68 31.68 0 0 1 43.52 11.52c8.96 15.36 3.84 34.56-11.52 43.52zM301.44 691.84a31.68 31.68 0 0 1 43.52-11.52c15.36 8.96 20.48 28.16 11.52 43.52l-32 55.68a31.552 31.552 0 0 1-43.52 11.52c-15.36-8.96-20.48-28.16-11.52-43.52l32-55.68zM512 724.48c17.92 0 32 14.08 32 32v64c0 17.92-14.08 32-32 32s-32-14.08-32-32v-64c0-17.92 14.08-32 32-32zM678.4 679.68a31.68 31.68 0 0 1 43.52 11.52l32 55.68c8.96 15.36 3.84 34.56-11.52 43.52a31.552 31.552 0 0 1-43.52-11.52l-32-55.68c-8.96-15.36-3.84-34.56 11.52-43.52zM911.36 622.08a31.552 31.552 0 0 1-43.52 11.52l-55.68-32c-15.36-8.96-20.48-28.16-11.52-43.52a31.68 31.68 0 0 1 43.52-11.52l55.68 32c15.36 8.96 20.48 28.16 11.52 43.52zM941.44 423.68h-64c-17.92 0-32-14.08-32-32s14.08-32 32-32h64c17.92 0 32 14.08 32 32s-14.08 32-32 32z"  horiz-adv-x="1024" />
      
      <glyph glyph-name="a-Uploadfile" unicode="&#59169;" d="M894.08 542.08V622.08c0 39.04-31.36 70.4-70.4 70.4H474.24c-6.4 0-12.16-1.28-17.92-2.56l-10.24 33.28c-9.6 29.44-36.48 48.64-67.2 48.64H131.84c-39.04 0-70.4-31.36-70.4-70.4v-634.88c0-39.04 31.36-70.4 70.4-70.4h755.2c39.04 0 70.4 31.36 70.4 70.4V472.96c0 36.48-28.16 65.28-63.36 69.12zM475.52 628.48h348.16c3.84 0 6.4-2.56 6.4-6.4v-78.72H531.2c-17.28 0-32.64 11.52-37.76 27.52l-17.28 56.96z m417.92-561.92c0-3.84-2.56-6.4-6.4-6.4H131.84c-3.84 0-6.4 2.56-6.4 6.4V701.44c0 3.84 2.56 6.4 6.4 6.4h246.4s5.12-1.92 6.4-4.48l47.36-151.68c14.08-42.88 53.76-72.32 98.56-72.32H887.04c3.2 0 6.4-3.2 6.4-6.4v-406.4zM487.04 447.36L346.88 307.2l45.44-45.44 85.76 85.76v-248.32h64V347.52L627.2 262.4l45.44 45.44L532.48 448c-12.8 12.8-32.64 12.8-45.44 0z"  horiz-adv-x="1024" />
      
      <glyph glyph-name="Re-send" unicode="&#59158;" d="M622.72 604.16h204.16A382.272 382.272 0 0 1 512 768C300.16 768 128 595.2 128 384s172.16-384 384-384c88.32 0 174.72 30.72 242.56 86.4l24.96 19.84 40.32-49.28-24.32-20.48A452.352 452.352 0 0 0 512-64c-247.04 0-448 200.96-448 448s200.96 448 448 448c138.88 0 266.24-62.72 351.36-169.6V832h64v-291.84H622.72v64z"  horiz-adv-x="1024" />
      
      <glyph glyph-name="a-movedown" unicode="&#59159;" d="M894.08 177.28h-768c-17.92 0-32-14.08-32-32v-128c0-17.92 14.08-32 32-32h768c17.92 0 32 14.08 32 32v128c0 17.92-14.08 32-32 32z m-32-128h-704v64h704v-64zM478.72 684.8v-213.12L403.2 547.2l-45.44-45.44 129.92-129.92a31.04 31.04 0 0 1 44.8 0l129.92 129.92-45.44 45.44-75.52-75.52V684.8h-64zM894.08 782.72h-768c-17.92 0-32-14.08-32-32v-160h64v128h704v-128h64v160c0 17.92-14.08 32-32 32zM94.08 312.32h832v-64h-832z"  horiz-adv-x="1024" />
      
      <glyph glyph-name="send" unicode="&#59160;" d="M370.56-70.4c-3.2 0-7.04 0-10.24 1.92a31.68 31.68 0 0 0-21.76 31.36l8.96 291.84c0 8.96 3.84 17.28 10.88 23.04l266.88 237.44 42.88-48-256.64-228.48-5.12-173.44 78.72 109.44c10.24 14.08 29.44 17.28 43.52 8.32l160-103.68L857.6 752.64 176 470.4l133.76-115.84-42.24-48.64-172.8 149.76c-8.32 7.04-12.16 18.56-10.88 29.44s8.96 20.48 19.2 24.32L892.16 836.48c11.52 4.48 24.32 2.56 33.28-5.12s12.8-20.48 10.24-32l-197.12-779.52c-2.56-10.24-9.6-17.92-19.2-21.76a30.72 30.72 0 0 0-28.8 3.2l-171.52 112-122.24-169.6c-6.4-8.32-16-13.44-26.24-13.44z"  horiz-adv-x="1024" />
      
      <glyph glyph-name="insert" unicode="&#59161;" d="M915.84 787.84h-768c-17.92 0-32-14.08-32-32v-128c0-17.92 14.08-32 32-32h768c17.92 0 32 14.08 32 32v128c0 17.92-14.08 32-32 32z m-32-128h-704v64h704v-64zM915.84 181.76h-768c-17.92 0-32-14.08-32-32v-128c0-17.92 14.08-32 32-32h768c17.92 0 32 14.08 32 32v128c0 17.92-14.08 32-32 32z m-32-128h-704v64h704v-64zM544.64 356.48h253.44l-75.52-75.52 45.44-45.44 129.92 129.92c5.76 5.76 9.6 14.08 9.6 22.4s-3.2 16.64-9.6 22.4L768 540.16l-45.44-45.44 75.52-75.52H544.64v-64zM497.28 292.48v192c0 17.92-14.08 32-32 32h-384c-17.92 0-32-14.08-32-32v-192c0-17.92 14.08-32 32-32h384c17.92 0 32 14.08 32 32z m-64 32h-320v128h320v-128z"  horiz-adv-x="1024" />
      
      <glyph glyph-name="a-Exportfile" unicode="&#59162;" d="M829.44 69.12c0-21.12-17.28-37.76-37.76-37.76H197.12c-21.12 0-37.76 17.28-37.76 37.76V663.04c0 21.12 17.28 37.76 37.76 37.76h328.96v64H197.12c-56.32 0-101.76-45.44-101.76-101.76v-593.92c0-56.32 45.44-101.76 101.76-101.76h594.56c56.32 0 101.76 45.44 101.76 101.76V398.08h-64v-328.96zM955.52 712.32L750.08 858.88l-37.12-51.84 135.04-96c-263.04-32.64-467.2-257.28-467.2-529.28v-32h64v32c0 244.48 187.52 445.44 426.24 467.84l-106.24-149.76 51.84-37.12 146.56 205.44a32 32 0 0 1-7.68 44.8z"  horiz-adv-x="1024" />
      
      <glyph glyph-name="exchange" unicode="&#59163;" d="M759.68 503.68l45.44-45.44 129.92 129.92c12.8 12.8 12.8 32.64 0 45.44l-129.92 129.92-45.44-45.44 75.52-75.52H581.76v-64h253.44l-75.52-75.52zM118.4 452.48h384c17.92 0 32 14.08 32 32V737.92c0 17.92-14.08 32-32 32h-384c-17.92 0-32-14.08-32-32v-253.44c0-17.92 14.08-32 32-32z m32 253.44h320v-189.44h-320V705.92zM265.6 265.6l-45.44 45.44-129.92-129.92c-5.76-5.76-9.6-14.08-9.6-22.4s3.2-16.64 9.6-22.4l129.92-129.92 45.44 45.44-75.52 75.52h253.44v64H190.08l75.52 75.52zM906.88 316.8h-384c-17.92 0-32-14.08-32-32v-253.44c0-17.92 14.08-32 32-32h384c17.92 0 32 14.08 32 32V284.8c0 17.92-14.08 32-32 32z m-32-253.44h-320v189.44h320v-189.44z"  horiz-adv-x="1024" />
      
      <glyph glyph-name="duiqi" unicode="&#59164;" d="M753.28 495.36l-45.44 45.44-129.92-129.92c-12.8-12.8-12.8-32.64 0-45.44l129.92-129.92 45.44 45.44-75.52 75.52h253.44v64h-253.44l75.52 75.52zM277.12 280.32l45.44-45.44L452.48 364.8c5.76 5.76 9.6 14.08 9.6 22.4s-3.2 16.64-9.6 22.4L322.56 539.52l-45.44-45.44 75.52-75.52H99.2v-64h253.44L277.12 279.04zM899.2 787.84h-768c-17.92 0-32-14.08-32-32v-128c0-17.92 14.08-32 32-32h768c17.92 0 32 14.08 32 32v128c0 17.92-14.08 32-32 32z m-32-128h-704v64h704v-64zM899.2 180.48h-768c-17.92 0-32-14.08-32-32v-128c0-17.92 14.08-32 32-32h768c17.92 0 32 14.08 32 32v128c0 17.92-14.08 32-32 32z m-32-128h-704v64h704v-64z"  horiz-adv-x="1024" />
      
      <glyph glyph-name="merge" unicode="&#59165;" d="M482.56 689.28V518.4L407.04 593.92l-45.44-45.44 129.92-129.92a31.04 31.04 0 0 1 44.8 0l129.92 129.92-45.44 45.44L545.28 518.4V689.28h-64zM898.56 787.84h-768c-17.92 0-32-14.08-32-32v-160h64v128h704v-128h64v160c0 17.92-14.08 32-32 32zM407.04 174.08l75.52 75.52v-170.88h64V249.6l75.52-75.52 45.44 45.44L537.6 349.44c-12.8 12.8-32.64 12.8-45.44 0l-129.92-129.92 45.44-45.44zM866.56 44.16h-704v128h-64v-160c0-17.92 14.08-32 32-32h768c17.92 0 32 14.08 32 32v160h-64v-128z"  horiz-adv-x="1024" />
      
      <glyph glyph-name="AI" unicode="&#59166;" d="M480 287.36h64v-26.88h-64zM721.92 669.44h-56.96l39.04 39.04a85.76 85.76 0 1 1-44.8 44.8L575.36 669.44H450.56L366.72 753.28a85.76 85.76 0 1 1-44.8-44.8l39.04-39.04h-56.96c-117.12 0-211.84-95.36-211.84-212.48v-277.12c0-21.76 17.92-39.04 39.04-39.04h763.52c21.76 0 39.04 17.92 39.04 39.04V457.6c0 117.12-95.36 212.48-211.84 212.48z m16 140.16c12.16 0 21.76-9.6 21.76-21.76s-9.6-21.76-21.76-21.76-21.76 9.6-21.76 21.76 9.6 21.76 21.76 21.76z m-473.6-21.76c0 12.16 9.6 21.76 21.76 21.76s21.76-9.6 21.76-21.76-9.6-21.76-21.76-21.76-21.76 9.6-21.76 21.76z m605.44-583.04H154.24V457.6a148.48 148.48 0 0 0 147.84 148.48h419.2c81.92 0 147.84-66.56 147.84-148.48v-252.8zM734.08 106.88H290.56c-17.92 0-32-14.08-32-32v-122.88c0-17.92 14.08-32 32-32h443.52c17.92 0 32 14.08 32 32v122.88c0 17.92-14.08 32-32 32z m-32-122.88H322.56v58.88h379.52v-58.88zM328.96 464.64h64v-91.52h-64zM631.04 464.64h64v-91.52h-64z"  horiz-adv-x="1024" />
      
      <glyph glyph-name="split" unicode="&#59167;" d="M544 46.72V217.6h-64v-170.88l-75.52 75.52-45.44-45.44 129.92-129.92a31.04 31.04 0 0 1 44.8 0l129.92 129.92-45.44 45.44-75.52-75.52zM896 316.16H128c-17.92 0-32-14.08-32-32v-160h64v128h704v-128h64v160c0 17.92-14.08 32-32 32zM480 705.92v-170.88h64V705.92l75.52-75.52 45.44 45.44-129.92 129.92c-12.8 12.8-32.64 12.8-45.44 0L359.68 675.84l45.44-45.44 75.52 75.52zM864 627.84v-128h-704v128h-64v-160c0-17.92 14.08-32 32-32h768c17.92 0 32 14.08 32 32v160h-64z"  horiz-adv-x="1024" />
      
      <glyph glyph-name="a-shiftup" unicode="&#59168;" d="M896 787.84H128c-17.92 0-32-14.08-32-32v-128c0-17.92 14.08-32 32-32h768c17.92 0 32 14.08 32 32v128c0 17.92-14.08 32-32 32z m-32-128h-704v64h704v-64zM543.36 87.68V300.8l75.52-75.52 45.44 45.44-129.92 129.92c-12.8 12.8-32.64 12.8-45.44 0L359.04 270.72l45.44-45.44L480 300.8v-213.12h64zM864 53.76h-704v128h-64v-160c0-17.92 14.08-32 32-32h768c17.92 0 32 14.08 32 32v160h-64v-128zM96 524.16h832v-64h-832z"  horiz-adv-x="1024" />
      
      <glyph glyph-name="team" unicode="&#59152;" d="M524.8 364.8c51.84 38.4 85.76 99.2 85.76 168.32 0 115.84-94.08 209.92-209.92 209.92S190.72 648.96 190.72 533.12c0-69.12 33.92-129.92 85.76-168.32a359.232 359.232 0 0 1-235.52-337.28v-32h64v32c0 163.2 132.48 295.68 295.68 295.68s295.68-132.48 295.68-295.68v-32h64v32c0 154.88-98.56 286.72-235.52 337.28zM254.72 533.12a145.856 145.856 0 1 0 291.84 0 145.856 145.856 0 1 0-291.84 0zM746.88 387.2c51.84 38.4 86.4 99.84 86.4 168.96 0 115.84-94.72 210.56-210.56 210.56v-64c80.64 0 146.56-65.92 146.56-146.56S703.36 409.6 622.72 409.6v-64c163.84 0 296.96-133.12 296.96-296.96h64c0 154.88-98.56 287.36-236.16 337.92z"  horiz-adv-x="1024" />
      
      <glyph glyph-name="project" unicode="&#59153;" d="M512 411.52c-4.48 0-8.32 0.64-12.8 2.56L87.04 588.8c-11.52 5.12-19.2 16.64-19.2 29.44s7.68 24.96 19.2 30.08L499.2 823.68c7.68 3.2 17.28 3.2 24.96 0l412.8-175.36a32.576 32.576 0 0 0 0-59.52L524.16 413.44c-3.84-1.92-8.32-2.56-12.8-2.56zM180.48 618.88L512 478.08l331.52 140.8L512 759.68l-331.52-140.8zM936.96 396.8l-123.52 52.48-81.92-34.56 112-47.36L512 226.56l-331.52 140.8 112 47.36-81.92 34.56-123.52-52.48c-11.52-5.12-19.2-17.28-19.2-30.08s7.68-24.32 19.2-29.44l412.8-175.36c3.84-1.92 8.32-2.56 12.8-2.56s8.32 0.64 12.8 2.56l412.8 175.36a32.576 32.576 0 0 1 0 59.52zM936.96 149.76l-123.52 52.48-81.92-34.56 112-47.36L512-20.48l-331.52 140.8 112 47.36-81.92 34.56-123.52-52.48c-11.52-5.12-19.2-17.28-19.2-30.08s7.68-24.32 19.2-29.44l412.8-175.36c3.84-1.92 8.32-2.56 12.8-2.56s8.32 0.64 12.8 2.56l412.8 175.36a32.576 32.576 0 0 1 0 59.52z"  horiz-adv-x="1024" />
      
      <glyph glyph-name="search2" unicode="&#59154;" d="M501.12 133.12c-149.76 0-271.36 121.6-271.36 271.36s121.6 272 271.36 272 271.36-121.6 271.36-271.36-121.6-271.36-271.36-271.36z m0 479.36c-114.56 0-207.36-93.44-207.36-207.36s93.44-207.36 207.36-207.36 207.36 93.44 207.36 207.36-93.44 207.36-207.36 207.36zM689.728 165.76l50.24 50.176 101.376-101.376-50.24-50.24zM164.48 478.72h-64v288c0 17.92 14.08 32 32 32h288v-64h-256v-256zM932.48 478.72h-64v256H611.84v64h288.64c17.92 0 32-14.08 32-32v-288zM420.48-33.28h-288c-17.92 0-32 14.08-32 32V287.36h64v-256.64h256v-64zM900.48-33.28H611.84v64h256.64V287.36h64v-288.64c0-17.92-14.08-32-32-32z"  horiz-adv-x="1024" />
      
      <glyph glyph-name="yuliaoduiqi" unicode="&#59155;" d="M113.28 800.64h64V-32h-64zM894.08 586.24H281.6c-17.92 0-32 14.08-32 32V768.64c0 17.92 14.08 32 32 32h612.48c17.92 0 32-14.08 32-32v-149.76c0-17.92-14.08-32-32-32z m-580.48 64h548.48V736H313.6v-85.76zM894.08-32.64H281.6c-17.92 0-32 14.08-32 32v149.76c0 17.92 14.08 32 32 32h612.48c17.92 0 32-14.08 32-32v-149.76c0-17.92-14.08-32-32-32z m-580.48 64h548.48v85.76H313.6v-85.76zM800 277.12H281.6c-17.92 0-32 14.08-32 32V458.88c0 17.92 14.08 32 32 32h518.4c17.92 0 32-14.08 32-32v-149.76c0-17.92-14.08-32-32-32z m-486.4 64H768V426.88H313.6v-85.76z"  horiz-adv-x="1024" />
      
      <glyph glyph-name="history" unicode="&#59156;" d="M471.68 503.04v-230.4l129.92-130.56 45.44 45.44-111.36 111.36V503.04h-64zM924.8 665.6H532.48l-60.8 101.76a31.68 31.68 0 0 1-27.52 15.36H112.64c-17.92 0-32-14.08-32-32v-733.44c0-17.92 14.08-32 32-32h812.16c17.92 0 32 14.08 32 32V633.6c0 17.92-14.08 32-32 32z m-32-616.32H144.64V718.72h280.96l60.8-101.76c5.76-9.6 16-15.36 27.52-15.36h378.88v-552.32z"  horiz-adv-x="1024" />
      
      <glyph glyph-name="ku_1" unicode="&#59157;" d="M928 522.24l-128 263.68a32 32 0 0 1-28.8 17.92h-518.4a32 32 0 0 1-28.8-17.92l-128-263.04c-1.92-3.84-3.2-8.32-3.2-13.44v-513.28c0-17.92 14.08-32 32-32h774.4c17.92 0 32 14.08 32 32V509.44c0 5.12-1.28 8.96-3.2 13.44zM273.28 739.84h478.08l96.64-198.4H176l96.64 198.4z m593.92-711.68H156.8V477.44h710.4v-448.64zM266.88 80l85.76 44.16 85.76-44.16c4.48-2.56 9.6-3.84 14.72-3.84a31.68 31.68 0 0 1 32 32V391.68c0 17.92-14.08 32-32 32H252.16c-17.92 0-32-14.08-32-32v-283.52a32.192 32.192 0 0 1 46.72-28.8z m17.28 279.68h136.32v-199.04l-53.76 27.52a33.92 33.92 0 0 1-29.44 0l-53.76-27.52V359.68zM528.64 406.4h275.2v-64h-275.2zM589.44 282.24h214.4v-64H589.44zM515.84 157.44h288v-64h-288z"  horiz-adv-x="1024" />
      
      <glyph glyph-name="yijianfankui" unicode="&#59151;" d="M858.24-5.76h-704c-17.92 0-32.64 14.72-32.64 32.64v704c0 17.92 14.72 32.64 32.64 32.64h407.68v-65.28H186.88v-638.72h638.08V442.88h65.28v-416c0-17.92-14.72-32.64-32.64-32.64zM387.84 232.32a30.08 30.08 0 0 0-22.4 9.6 31.36 31.36 0 0 0-7.68 32l58.24 184.96c1.28 5.12 4.48 9.6 7.68 12.8L789.12 837.76c12.8 12.8 32.64 12.8 45.44 0l126.72-126.72c12.8-12.8 12.8-32.64 0-45.44L595.84 300.16c-3.84-3.84-8.32-6.4-12.8-7.68l-184.96-58.24s-6.4-1.28-9.6-1.28z m86.4 200.32L436.48 313.6l119.04 37.76 337.92 336.64-81.28 81.28-337.28-336.64z"  horiz-adv-x="1024" />
      
      <glyph glyph-name="menu_1" unicode="&#59150;" d="M128 768h768a42.88 42.88 0 0 0 0-85.76H128A42.88 42.88 0 0 0 128 768zM128 426.88h768a42.88 42.88 0 0 0 0-85.76H128a42.88 42.88 0 0 0 0 85.76zM128 85.12h768a42.88 42.88 0 0 0 0-85.76H128a42.88 42.88 0 0 0 0 85.76z"  horiz-adv-x="1024" />
      
      <glyph glyph-name="a-yyq-icon-4_shangxian" unicode="&#59140;" d="M857.6 249.6v-192H166.4v192h-64v-224c0-19.2 12.8-32 32-32H896c19.2 0 32 12.8 32 32v224h-70.4zM320 492.8l-44.8 44.8L512 774.4l236.8-236.8-44.8-44.8-192 185.6zM320 256l-44.8 44.8L512 531.2l236.8-230.4-44.8-44.8-192 185.6z"  horiz-adv-x="1024" />
      
      <glyph glyph-name="a-yyq-icon-4_xiaxian" unicode="&#59149;" d="M857.6 249.6v-192H166.4v192h-64v-224c0-19.2 12.8-32 32-32H896c19.2 0 32 12.8 32 32v224h-70.4zM704 531.2l44.8-44.8L512 256 275.2 486.4l44.8 44.8 192-185.6zM704 774.4l44.8-44.8L512 492.8 275.2 729.6l44.8 44.8 192-192z"  horiz-adv-x="1024" />
      
      <glyph glyph-name="Activity" unicode="&#59139;" d="M974.08 238.72s-101.12 117.12-129.92 200.96c-11.52 33.92-12.8 85.12-2.56 144.64l44.16 225.28a32.192 32.192 0 0 1-17.28 34.56c-12.8 6.4-28.8 3.2-38.4-7.04-4.48-5.12-117.12-126.72-304-36.48-152.32 73.6-379.52 16.64-389.12 14.08-10.88-2.56-18.56-10.88-22.4-21.12h-3.2l123.52-904.96 63.36 8.32-35.2 257.28c61.44 8.96 206.72 24.32 318.72-15.36 53.12-18.56 102.4-26.24 147.2-26.24 144.64 0 236.8 76.8 241.28 80.64 6.4 5.76 10.24 13.44 10.88 21.76 0 8.32-1.92 16.64-7.68 23.68z m-370.56-39.68c-64.64 23.04-136.96 29.44-201.6 29.44-60.8 0-114.56-6.4-147.84-10.88L180.48 758.4c62.08 12.16 215.04 33.92 317.44-16 136.32-65.92 243.84-37.12 308.48-1.28l-28.8-145.92c-8.32-49.92-14.08-120.32 5.12-176.64 23.68-69.12 85.76-152.32 119.68-194.56-47.36-28.8-156.16-75.52-299.52-24.96z"  horiz-adv-x="1024" />
      
      <glyph glyph-name="play" unicode="&#59141;" d="M363.52 593.92h64v-420.48h-64zM596.48 593.92h64v-420.48h-64zM512-96C247.04-96 32 119.04 32 384S247.04 864 512 864s480-215.04 480-480-215.04-480-480-480z m0 896C282.88 800 96 613.12 96 384s186.88-416 416-416 416 186.88 416 416S741.12 800 512 800z"  horiz-adv-x="1024" />
      
      <glyph glyph-name="Uploading11" unicode="&#59147;" d="M881.92 554.88h-106.88V773.76a54.592 54.592 0 0 1-52.48 57.6h-608c-29.44-1.28-52.48-27.52-50.56-55.04V-6.4c-1.92-29.44 21.12-55.68 53.12-57.6h645.12c5.12 0 8.96 1.28 13.44 2.56 4.48-0.64 8.96-2.56 13.44-2.56h92.8c42.88 0 78.08 35.2 78.08 78.08V476.16c0 43.52-35.2 78.72-78.08 78.72zM128 768h583.04v-753.92c0-5.12 1.92-9.6 3.2-14.08H128V768z m768-753.92c0-7.68-6.4-14.08-14.08-14.08h-92.8c-7.68 0-14.08 6.4-14.08 14.08v43.52s0.64 0.64 0.64 1.28V490.88h106.24c7.68 0 14.08-6.4 14.08-14.72v-462.08zM711.04 14.08V767.36H128V0h586.24c-1.28 4.48-3.2 8.96-3.2 14.08zM584.32 403.2c-5.76-6.4-14.08-9.6-22.4-9.6s-16.64 3.2-22.4 9.6L455.04 487.68v-284.8c0-17.92-14.72-32-32-32s-32 14.08-32 32V488.32L306.56 403.84c-6.4-5.76-14.72-8.96-23.04-8.96-7.68 0-16 3.2-22.4 8.96-12.8 12.8-12.8 33.28 0 45.44l138.88 138.88c12.16 12.16 32.64 12.16 44.8 0L584.32 448c12.8-12.16 12.8-32.64 0-44.8zM584.32 403.2c-5.76-6.4-14.08-9.6-22.4-9.6s-16.64 3.2-22.4 9.6L455.04 487.68v-284.8c0-17.92-14.72-32-32-32s-32 14.08-32 32V488.32L306.56 403.84c-6.4-5.76-14.72-8.96-23.04-8.96-7.68 0-16 3.2-22.4 8.96-12.8 12.8-12.8 33.28 0 45.44l138.88 138.88c12.16 12.16 32.64 12.16 44.8 0L584.32 448c12.8-12.16 12.8-32.64 0-44.8z"  horiz-adv-x="1024" />
      
      <glyph glyph-name="Uploading21" unicode="&#59148;" d="M881.92 554.88h-106.88V773.76a54.592 54.592 0 0 1-52.48 57.6h-608c-29.44-1.28-52.48-27.52-50.56-55.04V-6.4c-1.92-29.44 21.12-55.68 53.12-57.6h645.12c5.12 0 8.96 1.28 13.44 2.56 4.48-0.64 8.96-2.56 13.44-2.56h92.8c42.88 0 78.08 35.2 78.08 78.08V476.16c0 43.52-35.2 78.72-78.08 78.72zM128 768h583.04v-753.92c0-5.12 1.92-9.6 3.2-14.08H128V768z m768-753.92c0-7.68-6.4-14.08-14.08-14.08h-92.8c-7.68 0-14.08 6.4-14.08 14.08v43.52s0.64 0.64 0.64 1.28V490.88h106.24c7.68 0 14.08-6.4 14.08-14.72v-462.08zM711.04 14.08V767.36H128V0h586.24c-1.28 4.48-3.2 8.96-3.2 14.08zM584.32 403.2c-5.76-6.4-14.08-9.6-22.4-9.6s-16.64 3.2-22.4 9.6L455.04 487.68v-284.8c0-17.92-14.72-32-32-32s-32 14.08-32 32V488.32L306.56 403.84c-6.4-5.76-14.72-8.96-23.04-8.96-7.68 0-16 3.2-22.4 8.96-12.8 12.8-12.8 33.28 0 45.44l138.88 138.88c12.16 12.16 32.64 12.16 44.8 0L584.32 448c12.8-12.16 12.8-32.64 0-44.8zM444.8 588.16a32.064 32.064 0 0 1-44.8 0L261.12 449.28c-12.8-12.16-12.8-32.64 0-45.44 6.4-5.76 14.72-8.96 22.4-8.96 8.32 0 16.64 3.2 23.04 8.96l84.48 84.48v-285.44c0-17.92 14.08-32 32-32s32 14.08 32 32V487.68L539.52 403.2c5.76-6.4 14.08-9.6 22.4-9.6s16.64 3.2 22.4 9.6c12.8 12.16 12.8 32.64 0 44.8L444.8 588.16z"  horiz-adv-x="1024" />
      
      <glyph glyph-name="yunying" unicode="&#59146;" d="M974.08 626.56h-91.52A141.44 141.44 0 0 1 764.16 845.44h-50.56c-76.8 0-144.64-39.68-183.68-99.84A200.896 200.896 0 0 1 357.12 845.44H288C209.92 845.44 146.56 782.08 146.56 704c0-28.8 8.96-55.04 23.04-77.44H78.08c-17.92 0-32-14.08-32-32v-192c0-17.92 14.08-32 32-32h32v-415.36c0-17.92 14.08-32 32-32h768c17.92 0 32 14.08 32 32V370.56h32c17.92 0 32 14.08 32 32v192c0 17.92-14.08 32-32 32zM713.6 780.8h50.56c42.88 0 77.44-34.56 77.44-77.44s-34.56-77.44-77.44-77.44H558.08a155.52 155.52 0 0 0 155.52 154.88zM210.56 703.36c0 42.88 34.56 77.44 77.44 77.44h69.12c75.52 0 136.96-61.44 136.96-136.96v-17.28H288c-42.88 0-77.44 34.56-77.44 77.44zM110.08 561.92h384v-127.36h-352s-1.92 0-3.2-0.64h-28.8v128z m64-192h320v-383.36h-320V369.92z m704-383.36h-320V369.92h320v-383.36z m64 447.36h-28.8s-1.92 0.64-3.2 0.64h-352V561.92h384v-128z"  horiz-adv-x="1024" />
      
      <glyph glyph-name="Questions" unicode="&#59144;" d="M519.995003 222.500937a47.970019 47.970019 0 0 1-17.269207-86.985634c7.675203-5.116802 17.269207-8.314803 26.223611-8.314803 3.198001 0 6.396002 0 9.594003 0.6396 12.792005 2.558401 23.665209 9.594004 30.700812 20.467208 7.035603 10.873204 9.594004 23.665209 7.035603 35.817614a48.097939 48.097939 0 0 1-56.284822 37.736415zM438.765771 516.077452c0 42.213616 33.898813 76.11243 76.11243 76.112429s76.11243-33.898813 76.11243-76.112429v-7.035603c0-36.457214-19.827608-70.356027-55.645222-90.823236-23.665209-17.269207-37.736415-45.411618-37.736415-74.833229v-86.346034h63.960025V344.024984c0 8.954403 4.477202 17.269207 9.594004 21.106809 51.80762 29.421611 83.787633 84.427233 83.787633 143.910056v7.035603a140.072455 140.072455 0 1 1-280.14491 0v-31.980013h63.960025v31.980013zM926.141162 768.71955H103.61524c-17.908807 0-31.980012-14.071205-31.980012-31.980012v-642.158651c0-17.908807 14.071205-31.980012 31.980012-31.980013h281.42411l113.848845-141.991255c5.756402-7.035603 14.071205-11.512804 23.665209-12.152405h1.279201c8.954403 0 17.269207 3.198001 23.025609 9.594004l139.432854 144.549656h239.850094c17.908807 0 31.980012 14.071205 31.980012 31.980013V736.739538c0 17.908807-14.071205 31.980012-31.980012 31.980012z m-31.980013-642.798251h-221.301686c-8.954403 0-17.269207-3.198001-23.025609-9.594004l-123.442848-127.92005-101.05684 126.00125a32.491693 32.491693 0 0 1-24.94441 12.152404H135.595253V704.759525h758.565896v-578.198626z"  horiz-adv-x="1027" />
      
      <glyph glyph-name="Whiteboard" unicode="&#59145;" d="M508.482199 865.938788L321.079325 745.054341h374.805747L508.482199 865.938788zM915.907558 711.155528H100.417239c-17.908807 0-31.980012-14.071205-31.980012-31.980013v-561.569019c0-17.908807 14.071205-31.980012 31.980012-31.980013H415.740162l-152.224859-120.244847 39.655215-50.528419 173.331668 136.234853v-111.290444h63.960025v111.290444l173.331668-136.234853 39.655215 50.528419-152.224859 120.244847h315.322923c17.908807 0 31.980012 14.071205 31.980013 31.980013V679.175515c0 17.908807-14.071205 31.980012-31.980013 31.980013z m-31.980013-562.20862H132.397252V647.195503h751.530293v-498.248595z"  horiz-adv-x="1024" />
      
      <glyph glyph-name="stop" unicode="&#59142;" d="M399.36 133.12c-5.12 0-10.24 1.28-15.36 3.84a32.576 32.576 0 0 0-16.64 28.16V615.04c0 11.52 6.4 22.4 16.64 28.16 10.24 5.76 23.04 5.12 32.64-1.28l337.92-225.28c8.96-5.76 14.08-16 14.08-26.88s-5.12-20.48-14.08-26.88l-337.92-225.28a29.44 29.44 0 0 0-17.92-5.12z m32 422.4v-330.88l248.32 165.12-248.32 165.12zM512-96C247.04-96 32 119.04 32 384S247.04 864 512 864s480-215.04 480-480-215.04-480-480-480z m0 896C282.88 800 96 613.12 96 384s186.88-416 416-416 416 186.88 416 416S741.12 800 512 800z"  horiz-adv-x="1024" />
      
      <glyph glyph-name="Teacher" unicode="&#59143;" d="M512 453.76A202.944 202.944 0 0 1 512 859.52a202.944 202.944 0 0 1 0-405.76z m0 341.76c76.8 0 138.88-62.08 138.88-138.88S588.8 517.76 512 517.76s-138.88 62.08-138.88 138.88S435.2 795.52 512 795.52zM960 148.48h-68.48l-64.64 249.6a32.64 32.64 0 0 1-30.72 24.32H227.84c-14.72 0-27.52-9.6-30.72-24.32l-64.64-249.6H64c-17.92 0-32-14.08-32-32s14.08-32 32-32h61.44v-119.68c0-17.92 14.08-32 32-32h709.12c17.92 0 32 14.08 32 32v119.68H960c17.92 0 32 14.08 32 32s-14.08 32-32 32zM771.2 358.4l23.04-88.96H697.6c-17.92 0-32-14.08-32-32v-88.32H360.32v88.32c0 17.92-14.08 32-32 32H229.76l23.04 88.96h518.4z m63.36-361.6H189.44v87.68h645.12v-87.68z"  horiz-adv-x="1024" />
      
      <glyph glyph-name="double-arrow-down" unicode="&#59134;" d="M512 18.56L143.36 387.2l45.44 44.8L512 108.8l323.2 323.2 45.44-44.8L512 18.56zM512 312.96L143.36 681.6l45.44 45.44L512 403.84l323.2 323.2 45.44-45.44L512 312.96z"  horiz-adv-x="1024" />
      
      <glyph glyph-name="double-arrow-right" unicode="&#59135;" d="M508.8 15.36l-44.8 45.44L787.2 384 464 707.2l44.8 45.44L877.44 384l-368.64-368.64zM214.4 15.36l-45.44 45.44L492.16 384 168.96 707.2l45.44 45.44L583.04 384l-368.64-368.64z"  horiz-adv-x="1024" />
      
      <glyph glyph-name="double-arrow-left" unicode="&#59136;" d="M515.2 17.28L146.56 385.92l368.64 368.64 44.8-45.44L236.8 385.92l323.2-323.2-44.8-45.44zM809.6 17.28L440.96 385.92l368.64 368.64 45.44-45.44-323.2-323.2 323.2-323.2-45.44-45.44z"  horiz-adv-x="1024" />
      
      <glyph glyph-name="double-arrow-up" unicode="&#59137;" d="M835.2 336L512 659.2 188.8 336l-45.44 44.8L512 749.44l368.64-368.64-45.44-44.8zM835.2 40.96L512 364.16l-323.2-323.2-45.44 45.44L512 455.04l368.64-368.64-45.44-45.44z"  horiz-adv-x="1024" />
      
      <glyph glyph-name="MP4" unicode="&#59138;" d="M902.72 623.04V-64h-704V832h512.96l191.04-208.96zM902.72-80h-704c-8.96 0-16 7.04-16 16V832c0 8.96 7.04 16 16 16h512.96c4.48 0 8.64-1.92 11.84-5.12l191.04-208.96c2.56-2.88 4.16-6.72 4.16-10.88V-64c0-8.96-7.04-16-16-16z m-688 32h672V616.96L704.64 816H214.72v-864zM887.04 616.64h-182.4V816l182.4-199.36zM75.2 546.56m64 0l568.32 0q64 0 64-64l0-384q0-64-64-64l-568.32 0q-64 0-64 64l0 384q0 64 64 64ZM177.6 411.52h49.28l37.12-161.6 38.4 161.6h48l4.8-233.28H319.68l-3.84 162.24-37.12-162.24h-28.8l-37.76 162.56-3.52-162.56H172.8l4.48 233.28zM393.6 411.52h76.8c44.48 0 66.56-22.08 66.56-66.24s-23.36-63.36-70.08-63.36h-26.24v-103.68h-47.36v233.28z m65.6-99.52c12.8 0 21.44 2.56 26.24 7.36 4.48 4.8 6.72 13.76 6.72 26.24 0 9.28-0.64 16.32-2.24 21.12s-4.48 8.64-9.28 11.2c-4.48 2.56-11.84 3.84-21.44 3.84h-18.24v-69.76h18.24zM632.96 235.52h-77.44v34.88l67.2 141.12h51.52v-144h27.2v-32h-27.2v-57.28h-41.6v57.28z m0 32v100.8l-40-100.8h40z"  horiz-adv-x="1024" />
      
      <glyph glyph-name="HOT" unicode="&#59133;" d="M218.24 553.6s-6.4-148.48 20.48-148.48c0 0 11.52 74.24 79.36 103.04C476.8 575.36 480 625.92 457.6 727.04 437.12 823.04 346.88 872.96 346.88 872.96s348.8 13.44 419.84-436.48c10.24-65.92 90.24 165.12 90.24 165.12s164.48-300.8 29.44-492.8-396.8-292.48-640-139.52C33.28 103.68 36.48 351.36 218.24 552.96z"  horiz-adv-x="1024" />
      
      <glyph glyph-name="a-yyq-icon-3_xiangji" unicode="&#59132;" d="M857.6 640h-102.4l-57.6 108.8c0 12.8-12.8 19.2-25.6 19.2h-320c-12.8 0-25.6-6.4-25.6-19.2L268.8 640H166.4C108.8 640 64 595.2 64 537.6v-435.2c0-57.6 44.8-102.4 102.4-102.4h691.2c57.6 0 102.4 44.8 102.4 102.4V537.6c0 57.6-44.8 102.4-102.4 102.4z m38.4-537.6c0-19.2-19.2-38.4-38.4-38.4H166.4c-19.2 0-38.4 19.2-38.4 38.4V537.6c0 19.2 19.2 38.4 38.4 38.4h121.6c12.8 0 25.6 6.4 25.6 19.2L371.2 704h281.6l57.6-108.8c0-12.8 12.8-19.2 25.6-19.2h121.6c19.2 0 38.4-19.2 38.4-38.4v-435.2zM512 492.8c-89.6 0-160-70.4-160-160s70.4-160 160-160 160 70.4 160 160S601.6 492.8 512 492.8z m0-256c-51.2 0-96 44.8-96 96S460.8 428.8 512 428.8s96-44.8 96-96-44.8-96-96-96zM812.8 531.2c-19.2 0-32-12.8-32-32s12.8-32 32-32 32 12.8 32 32c0 12.8-12.8 32-32 32z"  horiz-adv-x="1024" />
      
      <glyph glyph-name="a-bepoor2" unicode="&#59130;" d="M741.12 729.6m32 0l109.44 0q32 0 32-32l0-486.4q0-32-32-32l-109.44 0q-32 0-32 32l0 486.4q0 32 32 32ZM663.68 729.6H314.88c-42.24 0-80-28.16-92.16-69.12L113.92 288c-8.32-29.44-3.2-60.16 15.36-84.48 18.56-24.32 46.08-38.4 76.8-38.4h218.24l-19.84-133.76c-3.84-26.24 3.84-53.12 21.12-72.96 17.28-20.48 42.88-32 69.12-32h14.08c35.2 0 67.84 20.48 82.56 52.48l96.64 204.8c1.92 4.48 3.2 8.96 3.2 13.44l4.48 500.48c0 8.32-3.2 16.64-8.96 23.04s-14.08 9.6-23.04 9.6z"  horiz-adv-x="1024" />
      
      <glyph glyph-name="praise1" unicode="&#59131;" d="M136.32 584.96m32 0l109.44 0q32 0 32-32l0-486.4q0-32-32-32l-109.44 0q-32 0-32 32l0 486.4q0 32 32 32ZM921.6 560c-18.56 24.32-46.08 38.4-76.8 38.4H626.56l19.84 133.76c3.84 26.24-3.84 53.12-21.12 72.96-17.28 20.48-42.88 32-69.12 32h-14.08c-35.2 0-67.84-20.48-82.56-52.48l-96.64-204.8c-1.92-4.48-3.2-8.96-3.2-13.44l-4.48-500.48c0-8.32 3.2-16.64 8.96-23.04s14.08-9.6 23.04-9.6h348.8c42.24 0 80 28.16 92.16 69.12l108.8 372.48c8.32 29.44 2.56 60.16-15.36 84.48z"  horiz-adv-x="1024" />
      
      <glyph glyph-name="dignjia" unicode="&#59124;" d="M511.36 864C247.04 864 31.36 648.96 31.36 384s215.04-480 480-480 480 215.04 480 480S776.32 864 511.36 864z m0-896c-229.12 0-416 186.88-416 416s186.88 416 416 416 416-186.88 416-416-186.88-416-416-416zM677.76 693.12L512 526.72l-166.4 166.4-44.8-45.44 156.16-156.8H300.8v-64h179.2v-90.88H300.8v-64h179.2v-225.92h64V272h179.2v64H544V426.88h179.2v64H566.4l156.8 156.8-45.44 45.44z"  horiz-adv-x="1024" />
      
      <glyph glyph-name="QAjiancha_1" unicode="&#59125;" d="M981.76 56.96L567.68 775.04a63.744 63.744 0 0 1-110.72 0L42.24 56.96c-24.32-42.88 6.4-96 55.68-96h828.8c49.28 0 80 53.12 55.68 96z m-430.08 64c-7.04-10.88-17.92-17.92-30.72-20.48-3.2 0-6.4-0.64-9.6-0.64-9.6 0-18.56 2.56-26.24 8.32a46.784 46.784 0 0 0-20.48 30.72c-2.56 12.8 0 25.6 7.04 35.84s17.92 17.92 30.72 20.48c12.8 2.56 25.6 0 35.84-7.04 10.88-7.04 17.92-17.92 20.48-30.72 2.56-12.8 0-25.6-7.04-35.84z m-7.04 159.36v-5.12a31.36 31.36 0 0 0-31.36-28.16c-16.64 0-29.44 12.8-31.36 28.16l-25.6 256.64c-3.2 33.92 23.04 63.36 57.6 63.36s60.8-29.44 57.6-63.36l-24.96-251.52z"  horiz-adv-x="1024" />
      
      <glyph glyph-name="dingdan" unicode="&#59126;" d="M897.92 792.96h-124.8V832c0 17.92-14.08 32-32 32h-454.4c-17.92 0-32-14.08-32-32v-39.04H129.92c-17.92 0-32-14.08-32-32V-64c0-17.92 14.08-32 32-32h768c17.92 0 32 14.08 32 32V760.96c0 17.92-14.08 32-32 32zM318.72 800h390.4v-60.16h-390.4V800z m547.2-832h-704V728.96h92.8v-21.76c0-17.92 14.08-32 32-32h454.4c17.92 0 32 14.08 32 32v21.76h92.8V-32zM755.2 333.44H385.92v-64h401.28v64h-32zM417.92 536.32h-32v-64h401.28v64H417.92zM417.92 130.56h-32v-64h401.28v64H417.92zM284.8 504.32m-37.12 0a37.12 37.12 0 1 1 74.24 0 37.12 37.12 0 1 1-74.24 0ZM284.8 301.44m-37.12 0a37.12 37.12 0 1 1 74.24 0 37.12 37.12 0 1 1-74.24 0ZM284.8 98.56m-37.12 0a37.12 37.12 0 1 1 74.24 0 37.12 37.12 0 1 1-74.24 0Z"  horiz-adv-x="1024" />
      
      </font>
</defs>
</svg>
