<?xml version="1.0" standalone="no"?>
<!DOCTYPE svg PUBLIC "-//W3C//DTD SVG 1.1//EN" "http://www.w3.org/Graphics/SVG/1.1/DTD/svg11.dtd" >
<svg xmlns="http://www.w3.org/2000/svg">
  <metadata>Created by iconfont</metadata>
  <defs>
  <font id="iconfont" horiz-adv-x="1024">
    <font-face
      font-family="iconfont"
      font-weight="400"
      font-stretch="normal"
      units-per-em="1024"
      ascent="896"
      descent="-128"
    />
      <missing-glyph />
      
      <glyph glyph-name="ai-icon_AIzongjie" unicode="&#59230;" d="M819.2 768H281.6a115.2 115.2 0 0 1-115.2-115.2v-384h614.4v-153.6l-0.256-4.48a38.4 38.4 0 0 0-38.144-33.92l-4.48 0.256A38.4 38.4 0 0 0 704 115.2V192H89.6v-76.8A115.2 115.2 0 0 1 204.8 0h537.6a115.2 115.2 0 0 1 115.2 115.2V576h76.8V652.8A115.2 115.2 0 0 1 819.2 768zM440.704 485.632l-21.12-9.408c-27.456-12.16-49.408-34.56-61.632-62.528l-6.848-15.744a14.08 14.08 0 0 0-25.984 0l-6.848 15.744a121.28 121.28 0 0 1-61.696 62.528l-21.12 9.408a14.72 14.72 0 0 0 0 26.752l19.968 8.896c28.16 12.544 50.56 35.648 62.592 64.64l7.04 17.024a14.08 14.08 0 0 0 26.112 0l7.04-17.024c12.032-28.992 34.432-52.096 62.592-64.64l19.904-8.896a14.72 14.72 0 0 0 0-26.752z"  horiz-adv-x="1024" />
      
      <glyph glyph-name="ai-icon_AIgaixie" unicode="&#59231;" d="M323.791942 531.14332l-9.324186-21.330672a19.159287 19.159287 0 0 0-35.253087 0l-9.324186 21.330672a164.642135 164.642135 0 0 1-83.726082 84.939504l-28.73893 12.772858a19.989522 19.989522 0 0 0 0 36.402644l27.142322 12.006486A164.769864 164.769864 0 0 1 269.507297 765.078209l9.579643 23.055008a19.159287 19.159287 0 0 0 35.508545 0l9.579643-23.055008a164.769864 164.769864 0 0 1 84.939503-87.813397l27.078459-12.006486a19.989522 19.989522 0 0 0 0-36.402644l-28.73893-12.772858a164.642135 164.642135 0 0 1-83.662218-84.939504z m-62.331545-546.678308C300.162155 218.144443 384.07983 724.843707 938.421854 724.843707c-56.392167-113.231383-94.327554-169.879007-132.071349-207.558937l-37.67993-37.743795 56.58376-37.743794c-37.743794-113.231383-150.975178-245.366596-301.950356-264.206561-100.713983-12.645129-163.684171-81.810153-188.782836-207.622802H259.097418l2.362979 14.497194z"  horiz-adv-x="1024" />
      
      <glyph glyph-name="ai-icon_fuzhi" unicode="&#59232;" d="M809.28 832H389.824a150.848 150.848 0 0 1-150.656-150.656v-24.512h-24.32A150.976 150.976 0 0 1 64 505.984v-419.2C64 3.584 131.648-64 214.784-64h419.2c83.2 0 150.848 67.648 150.848 150.784v24.32h24.448A150.912 150.912 0 0 1 960 261.888V681.344A150.912 150.912 0 0 1 809.28 832z m-88.448-745.216c0-47.872-38.976-86.784-86.848-86.784h-419.2A86.912 86.912 0 0 0 128 86.784v419.2c0 47.872 38.912 86.848 86.784 86.848h419.2c47.872 0 86.848-38.976 86.848-86.848v-419.2zM896 261.888c0-47.808-38.912-86.784-86.72-86.784h-24.448v330.88c0 83.2-67.648 150.848-150.848 150.848h-330.88v24.512C303.168 729.152 342.08 768 389.888 768h419.456C857.088 768 896 729.152 896 681.344v-419.456z"  horiz-adv-x="1024" />
      
      <glyph glyph-name="a-ai-icon_AIshengcheng" unicode="&#59229;" d="M727.232 814.4l-54.848-95.36-95.36-54.848 95.36-54.848 54.848-95.36 54.784 95.36 95.424 54.848-95.424 54.784-54.784 95.424zM700.16 213.44l-123.2-68.352L700.16 76.8l68.352-123.136 68.352 123.136L960 145.088l-123.136 68.352-68.352 123.2-68.352-123.2zM262.272 492.928L64 384l198.272-108.928 109.632-198.336 102.208 198.336 198.272 109.632-191.488 108.928L371.2 691.904 261.632 493.632l0.64-0.64z"  horiz-adv-x="1024" />
      
      <glyph glyph-name="ai-icon_quanping-117" unicode="&#59226;" d="M800-32h-576A160.128 160.128 0 0 0 64 128V640c0 88.256 71.744 160 160 160h576C888.256 800 960 728.256 960 640v-512c0-88.256-71.744-160-160-160z m-576 768C171.072 736 128 692.928 128 640v-512c0-52.928 43.072-96 96-96h576c52.928 0 96 43.072 96 96V640c0 52.928-43.072 96-96 96h-576zM243.392 399.104a32 32 0 0 0-32 32V588.992c0 41.408 33.6 75.008 75.008 75.008h178.496a32 32 0 1 0 0-64h-178.56a11.008 11.008 0 0 1-10.944-11.008v-157.888a32 32 0 0 0-32-32zM737.536 104.064H559.04a32 32 0 1 0 0 64h178.56a11.008 11.008 0 0 1 11.008 11.008V336.96a32 32 0 1 0 64 0v-157.888c0-41.408-33.664-75.008-75.072-75.008z"  horiz-adv-x="1024" />
      
      <glyph glyph-name="ai-icon_Italic" unicode="&#59227;" d="M768 798.976H624.768a30.976 30.976 0 0 1-12.608 0H426.688a32 32 0 1 1 0-64h149.568L381.056 32H256a32 32 0 1 1 0-64h341.312a32 32 0 1 1 0 64H447.488l195.264 702.976H768a32 32 0 1 1 0 64z"  horiz-adv-x="1024" />
      
      <glyph glyph-name="ai-icon_bold" unicode="&#59228;" d="M669.632 405.12A222.848 222.848 0 0 1 750.464 576a224 224 0 0 1-223.424 224h-249.6a32 32 0 0 1-32-32v-768a32 32 0 0 1 32-32h327.04a224 224 0 0 1 223.36 224 223.488 223.488 0 0 1-158.08 213.12zM309.44 736h217.6c87.872 0 159.36-71.744 159.36-160s-71.488-160-159.36-160h-217.6v320z m295.04-704h-295.04v320h295.04c87.872 0 159.36-71.744 159.36-160s-71.488-160-159.36-160z"  horiz-adv-x="1024" />
      
      <glyph glyph-name="ai-icon_zimu2" unicode="&#59216;" d="M768 800H256A160.192 160.192 0 0 1 96 640v-512c0-88.192 71.808-160 160-160h512c88.192 0 160 71.808 160 160V640c0 88.192-71.808 160-160 160zM548.8 484.096c0 19.52 3.904 37.12 11.648 52.224a88.32 88.32 0 0 0 34.112 36.544 101.184 101.184 0 0 0 93.568 2.688c13.248-6.784 24.512-16.448 33.344-28.8 8.768-12.16 14.72-26.24 17.792-42.112l3.712-19.008h-64.448l-3.328 11.712a35.008 35.008 0 0 1-17.984 22.016 29.248 29.248 0 0 1-28.608-1.28 29.44 29.44 0 0 1-10.624-12.416 49.984 49.984 0 0 1-4.224-21.568v-62.912c0-8.32 1.408-15.552 4.288-21.504 2.56-5.44 6.016-9.536 10.496-12.352a31.232 31.232 0 0 1 39.744 6.912 33.984 33.984 0 0 1 6.848 13.632l3.2 11.968h64.64l-3.712-19.008c-3.072-15.872-9.088-30.08-17.92-42.176a93.184 93.184 0 0 0-76.8-38.912c-18.56 0-35.392 4.224-49.92 12.736a87.936 87.936 0 0 0-34.176 36.48 113.6 113.6 0 0 0-11.648 52.224v62.912z m-258.112 0c0 19.52 3.968 37.12 11.712 52.224a88.32 88.32 0 0 0 34.112 36.544 101.184 101.184 0 0 0 93.568 2.688c13.248-6.784 24.512-16.448 33.344-28.8 8.704-12.16 14.72-26.24 17.792-42.112l3.712-19.008H420.416l-3.2 11.712a35.008 35.008 0 0 1-18.112 22.016 29.248 29.248 0 0 1-28.544-1.28 29.44 29.44 0 0 1-10.624-12.416 49.984 49.984 0 0 1-4.224-21.568v-62.912c0-8.32 1.408-15.552 4.224-21.504 2.624-5.44 6.08-9.536 10.56-12.352a31.232 31.232 0 0 1 39.744 6.912 33.984 33.984 0 0 1 6.848 13.632l3.136 11.968h64.64l-3.648-19.008c-3.072-15.872-9.088-30.08-17.92-42.176a93.184 93.184 0 0 0-76.8-38.912c-18.624 0-35.456 4.224-49.92 12.736a87.936 87.936 0 0 0-34.176 36.48 113.6 113.6 0 0 0-11.712 52.224v62.912zM768 160H256a32 32 0 1 0 0 64h512a32 32 0 1 0 0-64z"  horiz-adv-x="1024" />
      
      <glyph glyph-name="ai-icon_zuoduiqi" unicode="&#59217;" d="M128 672h768a32 32 0 1 1 0 64H128a32 32 0 1 1 0-64zM128 458.688h597.312a32 32 0 1 1 0 64H128a32 32 0 1 1 0-64zM896 309.312H128a32 32 0 1 1 0-64h768a32 32 0 1 1 0 64zM725.312 96H128a32 32 0 1 1 0-64h597.312a32 32 0 1 1 0 64z"  horiz-adv-x="1024" />
      
      <glyph glyph-name="ai-icon_zimu" unicode="&#59218;" d="M768 800H256A160.192 160.192 0 0 1 96 640v-512c0-88.192 71.808-160 160-160h512c88.192 0 160 71.808 160 160V640c0 88.192-71.808 160-160 160zM864 128c0-52.928-43.072-96-96-96H256c-52.928 0-96 43.072-96 96V640c0 52.928 43.072 96 96 96h512c52.928 0 96-43.072 96-96v-512zM768 224H256a32 32 0 1 1 0-64h512a32 32 0 1 1 0 64zM336.512 332.48c14.528-8.512 31.36-12.8 49.984-12.8a93.504 93.504 0 0 1 76.8 38.912c8.832 12.16 14.848 26.368 17.92 42.24l3.712 19.008H420.224l-3.136-11.968a33.984 33.984 0 0 0-6.848-13.632 31.232 31.232 0 0 0-39.744-6.912 28.544 28.544 0 0 0-10.496 12.352 50.112 50.112 0 0 0-4.288 21.504v62.912c0 8.384 1.408 15.68 4.224 21.568a29.44 29.44 0 0 0 10.624 12.48 29.248 29.248 0 0 0 28.544 1.216 34.816 34.816 0 0 0 18.048-22.016l3.264-11.712h64.512l-3.712 19.008a105.92 105.92 0 0 1-17.792 42.112 92.992 92.992 0 0 1-33.344 28.8 101.184 101.184 0 0 1-93.568-2.688 88.32 88.32 0 0 1-34.112-36.48 113.6 113.6 0 0 1-11.648-52.288v-62.912c0-19.52 3.904-37.12 11.648-52.224 8-15.616 19.456-27.904 34.112-36.48zM594.56 332.48h0.064c14.528-8.512 31.36-12.8 49.92-12.8a92.992 92.992 0 0 1 76.8 38.912c8.832 12.16 14.848 26.368 17.92 42.24l3.712 19.008h-64.64l-3.2-11.968a33.984 33.984 0 0 0-6.848-13.632 31.232 31.232 0 0 0-39.744-6.912 28.544 28.544 0 0 0-10.496 12.352 50.112 50.112 0 0 0-4.288 21.504v62.912c0 8.384 1.408 15.68 4.224 21.568a29.44 29.44 0 0 0 10.624 12.48 29.248 29.248 0 0 0 28.608 1.216 35.712 35.712 0 0 0 18.048-22.016l3.2-11.712h64.512l-3.712 19.008a105.92 105.92 0 0 1-17.792 42.112 92.992 92.992 0 0 1-33.344 28.8 101.184 101.184 0 0 1-93.568-2.688 88.32 88.32 0 0 1-34.112-36.48 113.6 113.6 0 0 1-11.648-52.288v-62.912c0-19.52 3.904-37.12 11.648-52.224 8-15.616 19.52-27.904 34.176-36.48z"  horiz-adv-x="1024" />
      
      <glyph glyph-name="ai-icon_quxiaoquanping" unicode="&#59219;" d="M800-32h-576A160.128 160.128 0 0 0 64 128V640c0 88.256 71.744 160 160 160h576C888.256 800 960 728.256 960 640v-512c0-88.256-71.744-160-160-160z m-576 768C171.072 736 128 692.928 128 640v-512c0-52.928 43.072-96 96-96h576c52.928 0 96 43.072 96 96V640c0 52.928-43.072 96-96 96h-576zM423.488 395.968h-178.56a32 32 0 1 0 0 64h178.56a11.008 11.008 0 0 1 11.008 11.008V628.864a32 32 0 1 0 64 0v-157.888c0-41.344-33.664-75.008-75.008-75.008zM557.504 104.064a32 32 0 0 0-32 32V293.952c0 41.344 33.664 75.008 75.008 75.008h178.56a32 32 0 1 0 0-64h-178.56a11.008 11.008 0 0 1-11.008-11.008v-157.888a32 32 0 0 0-32-32z"  horiz-adv-x="1024" />
      
      <glyph glyph-name="ai-icon_youcuiqi" unicode="&#59220;" d="M128 672h768a32 32 0 1 1 0 64H128a32 32 0 1 1 0-64zM896 522.688H298.688a32 32 0 1 1 0-64H896a32 32 0 1 1 0 64zM896 309.312H128a32 32 0 1 1 0-64h768a32 32 0 1 1 0 64zM896 96H298.688a32 32 0 1 1 0-64H896a32 32 0 1 1 0 64z"  horiz-adv-x="1024" />
      
      <glyph glyph-name="ai-icon_xiugai" unicode="&#59221;" d="M199.04 103.04a30.272 30.272 0 0 1 6.272 0.64l207.232 41.472h0.064c18.624 3.712 35.648 12.864 49.088 26.304l348.416 348.352a160.064 160.064 0 0 1-226.304 226.304L235.52 397.696a96 96 0 0 1-26.304-49.088l-41.472-207.296a31.936 31.936 0 0 1 31.36-38.208z m72.832 232.96a32.128 32.128 0 0 0 8.832 16.448l348.352 348.416a95.936 95.936 0 0 0 135.808-135.808l-348.416-348.352a32.128 32.128 0 0 0-16.448-8.832l-160.128-32 32 160.128zM896 39.04H128a32 32 0 1 1 0-64h768a32 32 0 1 1 0 64z"  horiz-adv-x="1024" />
      
      <glyph glyph-name="ai-icon_yinseguanli" unicode="&#59222;" d="M494.592 141.44c117.12 0 212.416 95.36 212.416 212.48a32 32 0 1 1-64 0c0-81.856-66.56-148.48-148.48-148.48-81.856 0-148.48 66.624-148.48 148.48V536.768c0 81.856 66.624 148.48 148.48 148.48a32 32 0 1 1 0 64c-117.12 0-212.48-95.36-212.48-212.48V353.92c0-117.12 95.36-212.48 212.48-212.48zM772.864 376.32a32 32 0 0 1-32-32 246.592 246.592 0 0 0-246.272-246.336 246.592 246.592 0 0 0-246.4 246.4 32 32 0 1 1-64 0c0-160.384 122.688-291.2 278.848-307.2v-42.304h-32.448a32 32 0 1 1 0-64h128a32 32 0 1 1 0 64h-31.552v42.368c155.712 16.512 277.824 147.072 277.824 307.072a32 32 0 0 1-32 32zM949.44 647.488l-98.944 46.464-33.792 119.744a32 32 0 0 1-29.76 23.296c-13.76 1.408-26.56-8.128-31.168-21.312l-41.6-117.312-101.696-39.936a32 32 0 0 1-1.92-58.752l98.944-46.464 33.728-119.744a32 32 0 0 1 60.992-1.984l41.536 117.312 101.76 39.936a32 32 0 0 1 1.92 58.752z m-140.672-44.48a31.872 31.872 0 0 1-18.432-19.136l-12.8-36.096-10.432 36.864a32.128 32.128 0 0 1-17.152 20.288l-44.928 21.12 46.208 18.112a32 32 0 0 1 18.432 19.136l12.8 36.096 10.368-36.864c2.56-8.96 8.832-16.32 17.216-20.288l44.928-21.12-46.208-18.112z"  horiz-adv-x="1024" />
      
      <glyph glyph-name="ai-icon_yinseguanli2" unicode="&#59223;" d="M772.928 376.32a32 32 0 0 1-32-32c0-135.808-110.528-246.336-246.4-246.336s-246.336 110.528-246.336 246.4a32 32 0 1 1-64 0c0-160.384 122.688-291.2 278.912-307.2v-42.304h-32.576a32 32 0 1 1 0-64h128a32 32 0 1 1 0 64h-31.424v42.432c155.648 16.512 277.76 147.072 277.76 307.008a32 32 0 0 1-32 32zM494.528 141.504c117.12 0 212.48 95.36 212.48 212.48v21.12a94.72 94.72 0 0 0-25.344 40.96l-25.856 91.648-72.384 34.048a95.936 95.936 0 0 0 5.632 176.256l8.576 3.328a209.792 209.792 0 0 1-103.04 27.904c-117.12 0-212.48-95.36-212.48-212.48V353.92c0-117.12 95.36-212.416 212.48-212.416zM949.44 647.488l-98.944 46.464-33.728 119.744a32 32 0 0 1-29.824 23.296c-13.12 1.28-26.496-8.128-31.168-21.248l-41.536-117.312-101.76-40a32 32 0 0 1-1.92-58.752l98.944-46.464 33.792-119.744a32 32 0 0 1 60.928-1.984l41.6 117.312 101.696 39.936a32 32 0 0 1 1.92 58.752z"  horiz-adv-x="1024" />
      
      <glyph glyph-name="ai-icon_juzhong" unicode="&#59224;" d="M256 522.688a32 32 0 1 1 0-64h512a32 32 0 1 1 0 64H256zM128 672h768a32 32 0 1 1 0 64H128a32 32 0 1 1 0-64zM896 309.312H128a32 32 0 1 1 0-64h768a32 32 0 1 1 0 64zM768 96H256a32 32 0 1 1 0-64h512a32 32 0 1 1 0 64z"  horiz-adv-x="1024" />
      
      <glyph glyph-name="ai-icon_yinse" unicode="&#59225;" d="M704 608a32 32 0 0 1-32-32v-384a32 32 0 1 1 64 0V576a32 32 0 0 1-32 32zM896 480a32 32 0 0 1-32-32v-128a32 32 0 1 1 64 0V448a32 32 0 0 1-32 32zM320 608a32 32 0 0 1-32-32v-384a32 32 0 1 1 64 0V576a32 32 0 0 1-32 32zM128 480a32 32 0 0 1-32-32v-128a32 32 0 1 1 64 0V448a32 32 0 0 1-32 32zM512 736a32 32 0 0 1-32-32v-640a32 32 0 1 1 64 0V704a32 32 0 0 1-32 32z"  horiz-adv-x="1024" />
      
      <glyph glyph-name="ai-icon_zidingyiliebiao" unicode="&#58959;" d="M957.44 334.08c-3.2 17.28-12.16 26.24-23.04 26.24h-3.2c-39.04 0-69.76 33.92-69.76 74.24 0 14.08 6.4 28.16 6.4 28.16 6.4 14.08 1.28 30.72-10.88 40.32l-66.56 40.32h-1.28c-4.48 1.28-7.68 3.2-12.16 3.2-9.6 0-18.56-4.48-24.96-10.88-7.68-9.6-33.92-32.64-55.68-32.64s-46.72 23.04-55.68 32.64a31.296 31.296 0 0 1-24.96 10.88c-4.48 0-9.6-1.28-12.16-3.2l-69.76-40.32c-12.16-9.6-17.28-26.24-10.88-40.32 0 0 6.4-15.36 6.4-28.16 0-40.32-30.72-74.24-69.76-74.24h-1.28c-10.88 0-20.48-10.88-23.04-26.24 0-1.28-6.4-32.64-6.4-55.68s6.4-54.4 6.4-55.68c3.2-15.36 12.16-26.24 23.04-26.24h-1.28c39.04 0 69.76-33.92 69.76-74.24 0-14.08-6.4-28.16-6.4-28.16-6.4-14.08-1.28-30.72 10.88-40.32l66.56-39.04c4.48-1.28 7.68-3.2 12.16-3.2 9.6 0 18.56 4.48 24.96 10.88 7.68 9.6 33.92 33.92 55.68 33.92s48-24.96 57.6-35.84c6.4-7.68 15.36-10.88 24.96-10.88 4.48 0 9.6 1.28 12.16 3.2l68.48 40.32c12.16 9.6 17.28 26.24 10.88 40.32 0 0-6.4 15.36-6.4 28.16 0 40.32 30.72 74.24 69.76 74.24h3.2c10.88 0 20.48 10.88 23.04 26.24 0 1.28 6.4 32.64 6.4 55.68 3.2 23.04-1.28 54.4-1.28 55.68z m-163.2-156.16c-26.24-26.24-63.36-42.24-100.48-42.24-79.36 0-142.72 63.36-142.72 142.72s63.36 142.72 142.72 142.72 142.72-63.36 142.72-142.72c-1.92-38.4-16-73.6-42.24-100.48zM64 755.84m32 0l779.52 0q32 0 32-32l0 0q0-32-32-32l-779.52 0q-32 0-32 32l0 0q0 32 32 32ZM64 529.92m32 0l297.6 0q32 0 32-32l0 0q0-32-32-32l-297.6 0q-32 0-32 32l0 0q0 32 32 32ZM64 303.36m32 0l232.32 0q32 0 32-32l0 0q0-32-32-32l-232.32 0q-32 0-32 32l0 0q0 32 32 32ZM64 76.16m32 0l297.6 0q32 0 32-32l0 0q0-32-32-32l-297.6 0q-32 0-32 32l0 0q0 32 32 32Z"  horiz-adv-x="1024" />
      
      <glyph glyph-name="ai-icon_zuopinji" unicode="&#58960;" d="M472.96 714.88l28.8-57.6h284.8c17.92 0 32.64-14.72 32.64-32.64v-44.8h13.44c17.92 0 35.2-3.84 50.56-10.88v55.68c0 53.76-43.52 96.64-96.64 96.64H469.12s3.2-3.84 4.48-6.4zM359.04 721.28c24.32 0 46.08-13.44 56.96-35.2l49.92-99.84a128 128 0 0 1 114.56-71.04h252.16c35.2 0 64-28.8 64-64v-341.76c0-35.2-28.8-64-64-64H192c-35.2 0-64 28.8-64 64V657.92c0 35.2 28.8 64 64 64h167.04m0 63.36H192a128 128 0 0 1-128-128v-547.84a128 128 0 0 1 128-128h640.64a128 128 0 0 1 128 128V451.2a128 128 0 0 1-128 128H580.48c-24.32 0-46.72 14.08-57.6 35.84l-49.92 99.84A128 128 0 0 1 358.4 785.92z"  horiz-adv-x="1024" />
      
      <glyph glyph-name="ai-icon_shuaxin" unicode="&#58961;" d="M512-61.44a393.088 393.088 0 0 1 393.6 394.24 30.08 30.08 0 0 1-9.6 22.4 32.64 32.64 0 0 1-22.4 9.6c-17.28 0-32-14.08-32-32 0-181.76-147.84-329.6-330.24-329.6-181.76 0-330.24 147.84-330.24 330.24 0 181.76 147.84 329.6 330.24 329.6 8.32 0 16.64-1.92 24.96-2.56 5.76 0 10.88-1.28 16-1.92 30.72-3.84 61.44-10.88 91.52-23.68l5.12-2.56-5.12-2.56-98.56-46.08c-16-7.04-23.04-25.6-16-41.6a32.32 32.32 0 0 1 42.24-16.64c0.64 0 1.28 0 1.92 1.28l154.88 72.96c15.36 7.04 22.4 24.96 16 40.96l-67.84 170.24a31.936 31.936 0 0 1-29.44 19.84c-3.84 0-8.32-0.64-11.52-2.56a32 32 0 0 1-17.28-41.6l32-80 1.92-5.12-5.12 1.92c-42.88 15.36-87.68 23.68-133.76 23.68a392.512 392.512 0 0 1-366.08-536.96c1.92-5.12 4.48-10.24 6.4-16 8.32-18.56 17.92-36.48 28.8-53.76l7.68-11.52c11.52-16.64 24.32-32.64 39.04-47.36 3.84-4.48 8.32-8.32 12.8-12.16 13.44-12.8 28.16-24.96 44.16-36.48 6.4-4.48 12.8-8.96 19.84-13.44 7.68-5.12 15.36-9.6 23.68-14.08 56.32-30.08 120.32-46.08 183.68-46.08z"  horiz-adv-x="1024" />
      
      <glyph glyph-name="ai-icon_shengxu" unicode="&#58956;" d="M718.08 242.56L537.6 1.92c-12.8-17.28-38.4-17.28-51.2 0l-180.48 240.64a32 32 0 0 0 25.6 51.2h360.96a32 32 0 0 0 25.6-51.2zM537.6 766.08l180.48-240.64a32 32 0 0 0-25.6-51.2H331.52a32 32 0 0 0-25.6 51.2L486.4 766.08c12.8 17.28 38.4 17.28 51.2 0z"  horiz-adv-x="1024" />
      
      <glyph glyph-name="ai-icon_paixu" unicode="&#58957;" d="M718.08 242.56L537.6 1.92c-12.8-17.28-38.4-17.28-51.2 0l-180.48 240.64a32 32 0 0 0 25.6 51.2h360.96a32 32 0 0 0 25.6-51.2zM537.6 766.08l180.48-240.64a32 32 0 0 0-25.6-51.2H331.52a32 32 0 0 0-25.6 51.2L486.4 766.08c12.8 17.28 38.4 17.28 51.2 0z"  horiz-adv-x="1024" />
      
      <glyph glyph-name="ai-icon_jiangxu" unicode="&#58958;" d="M718.08 242.56L537.6 1.92c-12.8-17.28-38.4-17.28-51.2 0l-180.48 240.64a32 32 0 0 0 25.6 51.2h360.96a32 32 0 0 0 25.6-51.2zM537.6 766.08l180.48-240.64a32 32 0 0 0-25.6-51.2H331.52a32 32 0 0 0-25.6 51.2L486.4 766.08c12.8 17.28 38.4 17.28 51.2 0z"  horiz-adv-x="1024" />
      
      <glyph glyph-name="ai-icon_paidui2" unicode="&#59211;" d="M512 832C264.96 832 64 631.04 64 384s200.96-448 448-448 448 200.96 448 448-200.96 448-448 448z m0-832c-211.776 0-384 172.224-384 384s172.224 384 384 384 384-172.224 384-384-172.224-384-384-384zM541.76 387.584V674.752a32 32 0 1 1-64 0v-298.88a32 32 0 0 1 7.616-20.8l144-169.088a32 32 0 1 1 48.768 41.536l-136.384 160z"  horiz-adv-x="1024" />
      
      <glyph glyph-name="ai-icon_shenjiao" unicode="&#59210;" d="M915.072-8.832l-69.12 69.248c27.648 37.12 44.608 82.688 44.608 132.48 0 123.072-100.032 223.104-223.04 223.104s-223.104-100.032-223.104-223.04 100.096-223.104 223.104-223.104c50.112 0 95.872 17.28 133.184 45.248l69.12-69.12a31.872 31.872 0 0 1 45.248 0 32 32 0 0 1 0 45.184z m-247.552 42.688c-87.68 0-159.104 71.424-159.104 159.104S579.84 352 667.52 352s159.04-71.36 159.04-159.04-71.36-159.104-159.04-159.104zM389.12 0H250.24a86.848 86.848 0 0 0-86.656 86.72v594.56C163.584 729.216 202.432 768 250.24 768h475.712c47.808 0 86.72-38.848 86.72-86.656v-198.272a32 32 0 1 1 64 0V681.344A150.912 150.912 0 0 1 725.952 832H250.24a150.912 150.912 0 0 1-150.656-150.656v-594.56A150.912 150.912 0 0 1 250.24-64h138.88a32 32 0 1 1 0 64zM309.76 592.96a32 32 0 1 1 0-64h356.608a32 32 0 1 1 0 64H309.824z"  horiz-adv-x="1024" />
      
      <glyph glyph-name="ai-icon_gantanhao" unicode="&#59208;" d="M828.8 700.8A449.856 449.856 0 0 1 512.512 832h-0.96C393.728 832 278.4 784.192 195.2 700.8A449.6 449.6 0 0 1 64 384a449.792 449.792 0 0 1 131.2-316.864A449.664 449.664 0 0 1 511.36-64h1.28c117.76 0 232.96 47.808 316.16 131.2A449.472 449.472 0 0 1 960 383.936a449.92 449.92 0 0 1-131.2 316.8z m-45.312-588.352A384.96 384.96 0 0 0 512.704 0h-1.408a385.216 385.216 0 0 0-270.848 112.448A385.472 385.472 0 0 0 128 384a385.28 385.28 0 0 0 112.512 271.424A385.472 385.472 0 0 0 512.512 768c100.864 0 199.68-40.96 271.04-112.512A385.536 385.536 0 0 0 896 384a385.152 385.152 0 0 0-112.512-271.488zM512 279.488a32 32 0 0 1 32 32V630.656a32 32 0 1 1-64 0v-319.168a32 32 0 0 1 32-32zM512 233.6a64.064 64.064 0 0 1 0-128 64.064 64.064 0 0 1 0 128z m0-64v32-32z"  horiz-adv-x="1024" />
      
      <glyph glyph-name="ai-icon_zhengque" unicode="&#59209;" d="M828.8 700.8C744.192 785.28 631.68 832 512 832s-232.192-46.656-316.8-131.2C110.72 616.128 64 503.68 64 384s46.656-232.192 131.2-316.8S392.32-64 512-64s232.128 46.592 316.8 131.2A445.248 445.248 0 0 1 960 384c0 119.68-46.592 232.128-131.2 316.8z m-45.248-588.352C711.04 39.936 614.592 0 512 0s-199.04 39.936-271.488 112.448C167.936 184.96 128 281.408 128 384s39.936 199.04 112.512 271.488C312.96 728.064 409.472 768 512 768s199.04-39.936 271.552-112.512C856.064 583.04 896 486.528 896 384s-39.936-199.04-112.448-271.552zM790.72 578.752a32 32 0 0 1-45.248 0.256L419.392 256.896l-140.8 140.672a32 32 0 1 1-45.248-45.248l163.264-163.2a31.872 31.872 0 0 1 45.12-0.128l348.8 344.512a32 32 0 0 1 0.192 45.248z"  horiz-adv-x="1024" />
      
      <glyph glyph-name="ai-icon_qingkong" unicode="&#59204;" d="M512 832C264.96 832 64 631.04 64 384s200.96-448 448-448 448 200.96 448 448-200.96 448-448 448z m0-832c-211.776 0-384 172.224-384 384s172.224 384 384 384 384-172.224 384-384-172.224-384-384-384zM715.648 587.648a32 32 0 0 1-45.248 0L512 429.248 353.6 587.648a32 32 0 1 1-45.248-45.248L466.752 384l-158.4-158.4a32 32 0 1 1 45.248-45.248L512 338.752l158.4-158.4a31.872 31.872 0 0 1 45.248 0 32 32 0 0 1 0 45.248L557.248 384l158.4 158.4a32 32 0 0 1 0 45.248z"  horiz-adv-x="1024" />
      
      <glyph glyph-name="ai-icon_rili" unicode="&#59201;" d="M794.304 760H736v48a32 32 0 1 1-64 0v-48h-320v48a32 32 0 1 1-64 0v-48h-58.304A165.888 165.888 0 0 1 64 594.304v-500.608a165.888 165.888 0 0 1 165.696-165.696h564.608A165.888 165.888 0 0 1 960 93.696V594.304a165.888 165.888 0 0 1-165.696 165.696z m-564.608-64H288v-48a32 32 0 1 1 64 0v48h320v-48a32 32 0 1 1 64 0v48h58.304A101.76 101.76 0 0 0 896 594.304v-54.016H128v54.016a101.76 101.76 0 0 0 101.696 101.696z m564.608-704H229.76A101.76 101.76 0 0 0 128 93.696V476.288h768v-382.592a101.76 101.76 0 0 0-101.696-101.696zM352 363.904h-64a32 32 0 1 1 0-64h64a32 32 0 1 1 0 64zM544 363.904h-64a32 32 0 1 1 0-64h64a32 32 0 1 1 0 64zM736 363.904h-64a32 32 0 1 1 0-64h64a32 32 0 1 1 0 64zM352 190.464h-64a32 32 0 1 1 0-64h64a32 32 0 1 1 0 64zM544 190.464h-64a32 32 0 1 1 0-64h64a32 32 0 1 1 0 64zM736 190.464h-64a32 32 0 1 1 0-64h64a32 32 0 1 1 0 64z"  horiz-adv-x="1024" />
      
      <glyph glyph-name="ai-icon_xiangmu_xianming1" unicode="&#59207;" d="M890.688 646.528L538.688 833.152a63.04 63.04 0 0 1-59.008 0L127.744 646.464a58.88 58.88 0 0 1-31.744-51.904c0-21.568 12.16-41.408 31.744-51.712l352-186.56a62.848 62.848 0 0 1 58.944 0l351.936 186.496a58.88 58.88 0 0 1 31.808 51.776 58.88 58.88 0 0 1-31.744 51.904zM896 367.488L529.728 173.44 896 367.488zM896 399.552a31.232 31.232 0 0 1-14.976-3.84L515.776 202.24 150.72 395.712a32.128 32.128 0 0 1-30.016-56.512l365.184-193.536a64.384 64.384 0 0 1 60.032 0.064l365.056 193.536A32 32 0 0 1 896 399.552zM896 156.8l-366.272-194.176L896 156.736zM896 188.8a31.36 31.36 0 0 1-14.976-3.84l-365.248-193.472-365.056 193.536a32 32 0 0 1-30.016-56.512l365.184-193.6a64.384 64.384 0 0 1 60.032 0.064l365.056 193.536A32 32 0 0 1 896 188.8z"  horiz-adv-x="1024" />
      
      <glyph glyph-name="ai-icon_touxiang" unicode="&#59206;" d="M512 384m-464 0a464 464 0 1 1 928 0 464 464 0 1 1-928 0ZM512 832a448 448 0 1 0 0-896A448 448 0 0 0 512 832m0 32C247.296 864 32 648.704 32 384s215.296-480 480-480 480 215.296 480 480S776.704 864 512 864zM960 384c0 131.52-56.96 249.408-147.2 331.328a445.568 445.568 0 0 1-244.48 72.832 448 448 0 0 1-448-448c0-131.52 57.024-249.408 147.264-331.328A445.568 445.568 0 0 1 512-64a448 448 0 0 1 448 448zM889.216 625.088a448 448 0 0 0-410.048-628.032 447.296 447.296 0 0 0-377.216 206.912A447.872 447.872 0 0 1 960 384a445.44 445.44 0 0 1-70.784 241.088zM384 176c-114.688 0-208 93.312-208 208S269.312 592 384 592h256c114.688 0 208-93.312 208-208s-93.312-208-208-208H384zM640 576c105.6 0 192-86.4 192-192s-86.4-192-192-192H384c-105.6 0-192 86.4-192 192s86.4 192 192 192h256m0 32H384C260.48 608 160 507.52 160 384s100.48-224 224-224h256c123.52 0 224 100.48 224 224S763.52 608 640 608zM384 510.208h256a192.32 192.32 0 0 0 188.672-159.104c1.92 10.752 3.328 21.632 3.328 32.896 0 105.6-86.4 192-192 192H384C278.4 576 192 489.6 192 384c0-11.264 1.472-22.144 3.328-32.896A192.384 192.384 0 0 0 384 510.208zM441.6 368H345.6a16 16 0 0 0 0 32h96a16 16 0 0 0 0-32zM678.4 368H582.4a16 16 0 0 0 0 32h96a16 16 0 0 0 0-32z"  horiz-adv-x="1024" />
      
      <glyph glyph-name="ai-icon_end" unicode="&#59195;" d="M128 768m256 0l256 0q256 0 256-256l0-256q0-256-256-256l-256 0q-256 0-256 256l0 256q0 256 256 256Z"  horiz-adv-x="1024" />
      
      <glyph glyph-name="ai-icon_agentguanli_mianxing" unicode="&#59197;" d="M483.392 659.072m-192 0a192 192 0 1 1 384 0 192 192 0 1 1-384 0ZM885.248 83.52l0.768 2.496-1.28-0.96 0.512-1.536zM429.12 234.624a48 48 0 0 0 45.632 33.024h160.576l44.032 137.408c-8.384 0.896-16.64 2.56-25.28 2.56H312.768c-135.296 0-245.376-110.08-245.376-245.312s110.08-245.376 245.376-245.376h208.64l55.296 168.128-130.432 96a48 48 0 0 0-17.152 53.568zM955.456 209.92a23.936 23.936 0 0 1-22.848 16.64h-136.768l-42.24 130.048c-6.4 19.84-39.296 19.84-45.696 0l-42.24-130.112H528.832a23.936 23.936 0 0 1-14.08-43.392l110.72-80.384-42.24-130.112a23.936 23.936 0 0 1 36.864-26.816l110.656 80.384 110.72-80.384a23.936 23.936 0 0 1 36.864 26.816l-42.24 130.112 110.592 80.384a23.936 23.936 0 0 1 8.704 26.816z"  horiz-adv-x="1024" />
      
      <glyph glyph-name="ai-icon_xiadan_mianxing" unicode="&#59198;" d="M358.016 849.216m32.192 0l243.648 0q32.192 0 32.192-32.192l0-69.568q0-32.192-32.192-32.192l-243.648 0q-32.192 0-32.192 32.192l0 69.568q0 32.192 32.192 32.192ZM736.96 814.72h-6.976v-99.456a64 64 0 0 0-64-64H358.016a64 64 0 0 0-64 64V814.784H288A160.128 160.128 0 0 1 128 654.72v-576.96a159.296 159.296 0 0 1 159.04-159.04H736c88.256 0 160 71.808 160 160V655.744a159.296 159.296 0 0 1-159.04 159.104zM640 334.72H544v-96a32 32 0 1 0-64 0v96H384a32 32 0 1 0 0 64h96v96a32 32 0 1 0 64 0v-96H640a32 32 0 1 0 0-64z"  horiz-adv-x="1024" />
      
      <glyph glyph-name="ai-icon_wenjian" unicode="&#59199;" d="M948.608 302.016a63.936 63.936 0 0 1-53.12 28.352H787.2v353.28a130.624 130.624 0 0 1-130.496 130.496H312.064a130.56 130.56 0 0 1-130.432-130.432V494.08h-19.2a97.92 97.92 0 0 1-97.856-97.856v-344.576a97.92 97.92 0 0 1 78.4-95.872c5.12-1.28 10.368-1.92 15.744-1.92h613.632a95.36 95.36 0 0 1 88.576 59.392l93.696 228.8a64 64 0 0 1-6.016 59.904zM312.064 750.08h344.64c36.672 0 66.56-29.824 66.56-66.432v-353.28H281.792c-12.864 0-24.832-3.392-36.224-8.064V683.712A66.56 66.56 0 0 0 312.064 750.08z m-149.696-320h19.264v-187.52l-53.056-129.536V396.288a33.92 33.92 0 0 0 33.792 33.856z m639.296-392.576a31.552 31.552 0 0 0-29.312-19.712H162.368c-1.152 0-2.176 0.576-3.264 0.64l93.44 228.16a31.552 31.552 0 0 0 29.312 19.712H755.456l139.968 0.064-93.76-228.864zM372.928 580.928h192a32 32 0 1 1 0 64h-192a32 32 0 1 1 0-64zM372.928 430.08h192a32 32 0 1 1 0 64h-192a32 32 0 1 1 0-64z"  horiz-adv-x="1024" />
      
      <glyph glyph-name="ai-icon_xiadna_xianxing" unicode="&#59200;" d="M736.96 798.72h-38.976V833.28a32 32 0 0 1-32 32H358.016a32 32 0 0 1-32-32v-34.56H288A160.192 160.192 0 0 1 128 638.72v-576.896a159.296 159.296 0 0 1 159.04-159.104H736c88.256 0 160 71.872 160 160.064V639.68a159.296 159.296 0 0 1-159.04 159.04z m-346.944 2.56h243.968v-69.952H390.016V801.28zM832 62.72c0-52.928-43.072-96-96-96H287.04C234.624-33.28 192 9.28 192 61.76V638.72c0 52.992 43.136 96 96.064 96h37.952v-35.392a32 32 0 0 1 32-32h307.968a32 32 0 0 1 32 32V734.72h38.976c52.416 0 95.04-42.624 95.04-95.04v-576.896zM640 368.64H544v96a32 32 0 1 1-64 0v-96H384a32 32 0 1 1 0-64h96v-96a32 32 0 1 1 64 0v96H640a32 32 0 1 1 0 64z"  horiz-adv-x="1024" />
      
      <glyph glyph-name="ai-icon_dingdan_mianxing" unicode="&#59202;" d="M358.016 849.216m32.192 0l243.648 0q32.192 0 32.192-32.192l0-69.568q0-32.192-32.192-32.192l-243.648 0q-32.192 0-32.192 32.192l0 69.568q0 32.192 32.192 32.192ZM736.96 814.72h-6.976v-99.456a64 64 0 0 0-64-64H358.016a64 64 0 0 0-64 64V814.72H288A160.128 160.128 0 0 1 128 654.72v-576.896a159.296 159.296 0 0 1 159.04-159.04H736c88.256 0 160 71.808 160 160V655.68a159.296 159.296 0 0 1-159.04 159.104z m-94.656-560.64h-256a32 32 0 1 0 0 64h256a32 32 0 1 0 0-64z m0 166.016h-256a32 32 0 1 0 0 64h256a32 32 0 1 0 0-64z"  horiz-adv-x="1024" />
      
      <glyph glyph-name="ai-icon_agentguanli_xianxing" unicode="&#59203;" d="M479.36 467.072c105.92 0 192 86.144 192 192s-86.08 192-192 192-192-86.144-192-192 86.144-192 192-192z m0 320c70.592 0 128-57.472 128-128s-57.408-128-128-128-128 57.408-128 128 57.408 128 128 128zM458.048-19.072H308.736c-100.032 0-181.376 81.408-181.376 181.376S208.704 343.68 308.736 343.68h277.312a32 32 0 1 1 0 64H308.736A245.632 245.632 0 0 1 63.36 162.304a245.632 245.632 0 0 1 245.376-245.376h149.312a32 32 0 1 1 0 64zM951.424 209.92a23.936 23.936 0 0 1-22.784 16.64h-136.832l-42.24 130.048c-6.4 19.776-39.296 19.776-45.632 0l-42.304-130.112H524.8a23.936 23.936 0 0 1-14.08-43.456l110.592-80.384-42.24-130.048a24 24 0 0 1 36.928-26.88l110.656 80.448 110.656-80.448a23.936 23.936 0 0 1 36.928 26.88l-42.24 130.048 110.656 80.384a24 24 0 0 1 8.704 26.88z m-161.664-78.592a24 24 0 0 1-8.704-26.88l24.768-76.416-64.96 47.296a24 24 0 0 1-28.288 0l-64.96-47.296 24.832 76.416a24 24 0 0 1-8.704 26.88l-65.024 47.168h80.32a23.936 23.936 0 0 1 22.848 16.576l24.832 76.416 24.832-76.416c3.2-9.856 12.416-16.576 22.848-16.576h80.32l-64.96-47.168z"  horiz-adv-x="1024" />
      
      <glyph glyph-name="ai-icon_xiangmu_xianxing" unicode="&#59205;" d="M876.416 571.52l-104.96-55.552 104.96 55.616zM509.184 840.512a62.592 62.592 0 0 1-29.504-7.424L127.744 646.528a58.88 58.88 0 0 1-31.744-51.904c0-21.568 12.16-41.408 31.744-51.712l351.936-186.56h0.064a62.912 62.912 0 0 1 58.944 0l351.936 186.496a58.88 58.88 0 0 1 31.808 51.776 58.88 58.88 0 0 1-31.744 51.904L538.688 833.152a62.976 62.976 0 0 1-29.44 7.36z m0-427.392L166.592 594.752 508.8 776.64l343.04-181.888-342.592-181.632zM896 367.488L529.728 173.44 896 367.488zM895.936 399.552a31.232 31.232 0 0 1-14.912-3.84L515.776 202.24 150.72 395.712a32.128 32.128 0 0 1-43.264-13.248 32 32 0 0 1 13.312-43.2l365.12-193.6a64.384 64.384 0 0 1 60.032 0.064l365.056 193.536A32 32 0 0 1 896 399.552zM896 156.8l-366.272-194.112L896 156.8zM896 188.864a31.36 31.36 0 0 1-14.976-3.84l-365.248-193.536-365.056 193.536a32.128 32.128 0 0 1-43.264-13.248 32 32 0 0 1 13.312-43.2l365.12-193.664a64.384 64.384 0 0 1 60.032 0.064l365.056 193.6A32 32 0 0 1 896 188.8z"  horiz-adv-x="1024" />
      
      <glyph glyph-name="a-icon_AIDubbing-2" unicode="&#59185;" d="M850.944-12.288l-77.312 190.464-9.216 23.04c-2.56 6.144-5.632 11.776-9.216 17.408a49.766 49.766 0 0 1-15.36 13.824 46.9 46.9 0 0 1-22.016 5.632h-3.072c-7.68 0-15.36-2.048-22.016-5.632-6.144-3.584-11.264-8.192-15.36-13.824-4.096-6.656-7.168-13.312-9.728-20.48l-7.68-19.968-75.776-192c-2.56-6.144-4.608-12.288-6.656-18.432-1.536-4.608-2.048-9.216-2.048-14.336 0-8.704 3.584-16.384 10.24-22.528 6.144-6.144 14.848-9.728 23.552-9.728 9.728 0 18.432 3.072 23.552 9.728 4.608 6.144 9.216 16.896 14.848 31.232l12.8 34.304h112.64l12.8-33.28 6.656-15.872c2.56-6.144 5.632-11.264 8.192-14.848 6.144-7.168 14.848-11.264 24.064-11.264h0.512c9.728 0 17.92 3.584 24.576 10.24 6.656 5.632 10.24 14.336 10.24 23.04 0 7.68-3.584 19.456-9.728 33.792z m-171.008 65.024l35.84 100.352 36.864-100.352h-72.704z m286.72 143.36c0 12.8-3.072 23.552-9.728 31.232a33.638 33.638 0 0 1-25.6 10.752h-1.024c-9.216 0-17.92-4.096-24.576-10.752-6.656-7.68-9.728-17.92-9.728-31.232v-232.96c0-12.8 3.072-23.552 9.728-31.232 6.144-7.168 15.36-10.752 24.576-10.752h2.048c9.216 0 18.432 4.096 24.576 10.752 7.168 7.68 9.728 18.432 9.728 31.232v232.96zM512 843.264a460.8 460.8 0 0 1-460.8-460.8v-358.912c0-56.32 45.568-101.888 101.888-101.888H512c15.872 0 31.744 1.024 47.104 2.56-5.632 9.216-9.728 18.944-9.728 29.696 0 7.68 1.024 14.848 3.584 22.016 2.048 6.656 4.608 13.312 7.168 19.968l75.776 192 7.68 19.456c3.584 8.704 7.168 16.896 13.312 25.6 6.144 9.216 14.336 16.896 24.576 22.016 10.24 5.632 22.016 8.704 34.304 8.704h2.048a70.656 70.656 0 0 0 57.856-30.208c5.12-7.168 8.704-14.336 11.776-22.016 3.072-7.68 6.656-15.872 9.216-23.04l49.152-121.856c8.192 8.704 16.384 17.408 23.552 26.624V196.096c0 19.968 5.632 36.352 16.384 48.128 11.264 12.288 27.136 19.456 43.52 19.456h1.024c8.704 0 16.896-1.536 24.576-4.608 11.264 39.424 17.408 80.896 17.408 123.904a460.8 460.8 0 0 1-460.8 460.8zM399.36 299.52c-0.512-21.504-17.408-38.4-38.912-38.912a39.578 39.578 0 0 0-38.912 38.912V476.672c0.512 20.992 17.92 38.4 38.912 38.912 21.504-0.512 38.4-17.408 38.912-38.912V299.52z m151.552-75.776c-0.512-21.504-17.408-38.4-38.912-38.912a39.578 39.578 0 0 0-38.912 38.912V552.448A39.936 39.936 0 0 0 512 591.36c21.504-0.512 38.4-17.408 38.912-38.912v-328.704z m151.552 75.776c-0.512-21.504-17.408-38.4-38.912-38.912a39.578 39.578 0 0 0-38.912 38.912V476.672c0.512 21.504 17.408 38.4 38.912 38.912 21.504-0.512 38.4-17.408 38.912-38.912V299.52z"  horiz-adv-x="1024" />
      
      <glyph glyph-name="ai-icon_ciku" unicode="&#59184;" d="M127.168 736h684.48a32 32 0 1 1 0 64H127.168a32 32 0 1 1 0-64zM314.368 526.08a32 32 0 0 1-32 32H127.168a32 32 0 1 1 0-64h155.2a32 32 0 0 1 32 32zM250.048 74.24h-122.88a32 32 0 1 1 0-64h122.88a32 32 0 1 1 0 64zM854.656 86.656c45.12 55.168 73.344 124.672 73.344 201.344a320.384 320.384 0 0 1-320 320.064A320.384 320.384 0 0 1 287.936 288c0-176.448 143.552-320 320.064-320 76.672 0 146.176 28.224 201.344 73.344l64-64a31.872 31.872 0 0 1 45.312 0 32 32 0 0 1 0 45.312l-64 64zM351.936 288c0 141.184 114.88 256.064 256.064 256.064s256-114.88 256-256.064-114.816-256-256-256-256.064 114.816-256.064 256zM127.168 252.16H206.08a32 32 0 1 1 0 64H127.168a32 32 0 1 1 0-64zM728.448 253.952l-0.384 0.768L637.312 461.44a32 32 0 0 1-58.624 0L487.872 254.72a12.352 12.352 0 0 1-0.384-0.832l-36.224-79.104a32 32 0 0 1 58.24-26.624l27.904 61.12h141.12l27.904-61.12a32.064 32.064 0 0 1 58.24 26.624l-36.224 79.168z m-162.56 19.328L608 369.024l42.048-95.744H565.888z"  horiz-adv-x="1024" />
      
      <glyph glyph-name="ai-icon_down" unicode="&#58954;" d="M117.76 565.12c0 8.32 3.2 16.64 9.6 22.4 12.8 12.8 32.64 12.8 45.44 0l339.2-339.2 339.2 339.2c12.8 12.8 32.64 12.8 45.44 0s12.8-32.64 0-45.44l-362.24-362.24c-12.8-12.8-32.64-12.8-45.44 0L127.36 542.08c-6.4 6.4-9.6 14.72-9.6 22.4z"  horiz-adv-x="1024" />
      
      <glyph glyph-name="ai-icon_up-2" unicode="&#58955;" d="M906.24 202.88c0-8.32-3.2-16.64-9.6-22.4-12.8-12.8-32.64-12.8-45.44 0L512 519.68l-339.2-339.2c-12.8-12.8-32.64-12.8-45.44 0s-12.8 32.64 0 45.44l362.24 362.24c12.8 12.8 32.64 12.8 45.44 0l362.24-362.24c6.4-6.4 9.6-14.72 9.6-22.4z"  horiz-adv-x="1024" />
      
      <glyph glyph-name="ai-icon-paidui" unicode="&#58953;" d="M512 832a448 448 0 1 1 0-896A448 448 0 0 1 512 832z m168.448-644.096A37.312 37.312 0 0 0 627.84 192L483.648 360.064a37.44 37.44 0 0 0-8.96 24.32V687.936a37.312 37.312 0 0 0 74.688 0V398.08l135.104-157.568a37.312 37.312 0 0 0-4.032-52.672z"  horiz-adv-x="1024" />
      
      <glyph glyph-name="ai-icon_up" unicode="&#58948;" d="M511.36 832h7.04s4.48-0.64 7.04-1.92 3.84-1.28 5.76-2.56c3.84-1.92 7.68-4.48 10.88-7.04l329.6-282.24c20.48-16 23.68-46.08 7.68-66.56s-46.08-23.68-66.56-7.68c-0.64 0.64-1.92 1.28-2.56 2.56L558.08 682.88v-698.88c0-26.24-21.12-47.36-47.36-47.36s-47.36 21.12-47.36 47.36V682.24L211.2 465.92a47.488 47.488 0 0 0-78.08 35.84c0 14.08 5.76 26.88 16.64 35.84L480 820.48s7.04 5.12 10.88 7.04c1.28 0.64 3.2 1.28 4.48 1.92s6.4 1.92 9.6 2.56 4.48 0 7.04 0z"  horiz-adv-x="1024" />
      
      <glyph glyph-name="ai-icon_suoxiao" unicode="&#58949;" d="M349.44 770.56c-17.92 0-32-14.08-32-32v-115.2L118.4 822.4c-12.8 12.8-32.64 12.8-45.44 0-12.8-12.8-12.8-32.64 0-45.44l198.4-198.4H156.8c-17.92 0-32-14.08-32-32s14.08-32 32-32h192c17.92 0 32 14.08 32 32v192c0 17.92-14.08 32-32 32zM950.4 822.4c-12.8 12.8-32.64 12.8-45.44 0l-199.04-199.04v115.2c0 17.92-14.08 32-32 32s-32-14.08-32-32v-192c0-17.92 14.08-32 32-32h192c17.92 0 32 14.08 32 32s-14.08 32-32 32h-114.56l198.4 198.4c12.8 12.8 12.8 32.64 0 45.44zM950.4-9.6l-198.4 198.4h114.56c17.92 0 32 14.08 32 32s-14.08 32-32 32h-192c-17.92 0-32-14.08-32-32v-192c0-17.92 14.08-32 32-32s32 14.08 32 32v115.2l199.04-199.04c12.8-12.8 32.64-12.8 45.44 0 12.8 12.8 12.8 32.64 0 45.44zM349.44 253.44h-192c-17.92 0-32-14.08-32-32s14.08-32 32-32h114.56l-198.4-198.4c-12.8-12.8-12.8-32.64 0-45.44 12.8-12.8 32.64-12.8 45.44 0l199.04 199.04v-115.2c0-17.92 14.08-32 32-32s32 14.08 32 32v192c0 17.92-14.08 32-32 32z"  horiz-adv-x="1024" />
      
      <glyph glyph-name="ai-icon_quanping1" unicode="&#58950;" d="M371.84 569.6L173.44 768H288c17.92 0 32 14.08 32 32S305.92 832 288 832h-192c-17.92 0-32-14.08-32-32v-192c0-17.92 14.08-32 32-32s32 14.08 32 32V723.2l199.04-199.04c12.8-12.8 32.64-12.8 45.44 0 12.8 12.8 12.8 32.64 0 45.44zM928 832h-192c-17.92 0-32-14.08-32-32s14.08-32 32-32h114.56l-198.4-198.4c-12.8-12.8-12.8-32.64 0-45.44 12.8-12.8 32.64-12.8 45.44 0l199.04 199.04v-115.2c0-17.92 14.08-32 32-32s32 14.08 32 32v192c0 17.92-14.08 32-32 32zM928 192c-17.92 0-32-14.08-32-32v-115.2l-199.04 199.04c-12.8 12.8-32.64 12.8-45.44 0-12.8-12.8-12.8-32.64 0-45.44l198.4-198.4h-114.56c-17.92 0-32-14.08-32-32s14.08-32 32-32h192c17.92 0 32 14.08 32 32v192c0 17.92-14.08 32-32 32zM371.84 243.84c-12.8 12.8-32.64 12.8-45.44 0L127.36 44.8v115.2c0 17.92-14.08 32-32 32s-32-14.08-32-32v-192c0-17.92 14.08-32 32-32h192c17.92 0 32 14.08 32 32s-14.08 32-32 32H172.8l198.4 198.4c12.8 12.8 12.8 32.64 0 45.44z"  horiz-adv-x="1024" />
      
      <glyph glyph-name="ai-icon_download" unicode="&#58951;" d="M97.92 328.96c18.56 0 33.92-15.36 33.92-33.92v-200.96c0-35.84 30.08-66.56 69.76-66.56h621.44c39.68 0 69.76 30.72 69.76 66.56V295.04c0 18.56 15.36 33.92 33.92 33.92s33.92-15.36 33.92-33.92v-200.96c0-74.88-62.72-134.4-137.6-134.4H201.6c-74.88 0-137.6 58.88-137.6 134.4V295.04c0 18.56 15.36 33.92 33.92 33.92z m0 0M545.92 803.2v-545.92c0-18.56-15.36-33.92-33.92-33.92s-33.92 15.36-33.92 33.92V803.2c0 18.56 15.36 33.92 33.92 33.92s33.92-15.36 33.92-33.92z m0 0M299.52 469.76a32.384 32.384 0 0 0 47.36 0L535.04 281.6c13.44-13.44 13.44-34.56 0-48s-34.56-13.44-48 0L298.88 421.76a32.384 32.384 0 0 0 0 47.36z m0 0M724.48 469.76a32.384 32.384 0 0 1-47.36 0L488.96 281.6c-8.32-8.32-12.16-21.12-8.96-32.64 3.2-11.52 12.16-21.12 23.68-23.68 11.52-3.2 24.32 0 32.64 8.96l188.16 188.16a32.384 32.384 0 0 1 0 47.36z m0 0"  horiz-adv-x="1024" />
      
      <glyph glyph-name="ai-icon_X" unicode="&#58952;" d="M798.931177 715.951972m22.627417-22.627417l0 0q22.627417-22.627417 0-45.254834l-573.831296-573.831295q-22.627417-22.627417-45.254834 0l0 0q-22.627417 22.627417 0 45.254834l573.831296 573.831295q22.627417 22.627417 45.254834 0ZM843.951972 96.993843m-22.627417-22.627417l0 0q-22.627417-22.627417-45.254834 0l-573.831295 573.831295q-22.627417 22.627417 0 45.254834l0 0q22.627417 22.627417 45.254834 0l573.831295-573.831295q22.627417-22.627417 0-45.254834Z"  horiz-adv-x="1024" />
      
      <glyph glyph-name="ai-icon-more" unicode="&#58947;" d="M304.64 384c0-42.24-34.56-76.8-76.8-76.8s-76.8 34.56-76.8 76.8 34.56 76.8 76.8 76.8 76.8-34.56 76.8-76.8M588.8 384c0-42.24-34.56-76.8-76.8-76.8S435.2 341.76 435.2 384 469.76 460.8 512 460.8s76.8-34.56 76.8-76.8M872.96 384c0-42.24-34.56-76.8-76.8-76.8s-76.8 34.56-76.8 76.8 34.56 76.8 76.8 76.8 76.8-34.56 76.8-76.8"  horiz-adv-x="1024" />
      
      <glyph glyph-name="ai-icon_bianji1" unicode="&#58946;" d="M851.2 615.04l-149.12 149.12c-19.84 19.84-46.08 30.08-72.32 30.08s-52.48-10.24-72.32-30.08L94.72 300.8c-19.2-19.2-30.08-44.8-30.08-72.32v-152.32c0-56.96 45.44-102.4 101.76-102.4h1.92l149.12 2.56c26.24 0 51.84 11.52 70.4 30.08l463.36 463.36c39.68 39.68 39.68 104.96 0 144.64z m-516.48-555.52c-5.12-5.12-12.16-8.32-19.2-8.32l-149.12-2.56c-9.6 0-16.64 5.12-19.2 8.32a27.392 27.392 0 0 0-8.32 19.84v152.32c0 7.68 3.2 14.08 8.32 19.84l345.6 345.6 188.16-188.16-346.24-346.24z m463.36 463.36l-64.64-64.64L545.28 646.4l64.64 64.64c7.04 7.04 15.36 8.32 19.84 8.32s12.8-1.28 19.84-8.32l149.12-149.12c7.04-7.04 8.32-15.36 8.32-19.84s-1.28-12.8-8.32-19.84zM728.96 237.44m38.4 0l154.24 0q38.4 0 38.4-38.4l0 0q0-38.4-38.4-38.4l-154.24 0q-38.4 0-38.4 38.4l0 0q0 38.4 38.4 38.4ZM544.64 53.12m38.4 0l338.56 0q38.4 0 38.4-38.4l0 0q0-38.4-38.4-38.4l-338.56 0q-38.4 0-38.4 38.4l0 0q0 38.4 38.4 38.4Z"  horiz-adv-x="1024" />
      
      <glyph glyph-name="ai-icon_AIgongju_xianxing" unicode="&#58944;" d="M931.84-10.88a44.16 44.16 0 0 1-13.44 20.48c-62.08 59.52-124.8 118.4-186.88 177.92-2.56 1.92-4.48 4.48-7.04 6.4a42.112 42.112 0 0 1-24.32 7.68c-7.68 0-15.36-1.92-21.76-6.4-15.36-9.6-21.76-23.68-19.84-40.96 1.28-10.24 6.4-18.56 14.08-26.24 58.24-55.68 117.12-111.36 175.36-167.04 5.12-5.12 10.24-9.6 15.36-14.08 7.68-7.04 17.28-10.88 30.08-10.88 26.24 0 46.08 26.24 38.4 53.12zM775.04 676.48c3.2 0 7.04 0 10.88 1.28 12.16 2.56 21.12 9.6 27.52 20.48 13.44 24.32 26.88 49.28 39.68 74.24 0 0 0 1.28 0.64 1.92 12.16 28.16-7.68 58.24-42.24 58.24-12.8 0-25.6-7.68-33.92-22.4l-38.4-71.04c0-1.28-1.28-2.56-1.92-3.84-6.4-15.36-5.12-30.08 5.76-42.88 8.32-10.24 19.2-15.36 31.36-15.36zM820.48 609.92c-14.72-9.6-22.4-27.52-17.92-44.16a42.304 42.304 0 0 1 56.96-28.8c16 6.4 32 13.44 48 21.12 17.92 8.32 26.88 27.52 22.4 46.72-4.48 18.56-21.12 31.36-42.24 31.36h-1.28c-5.12 0-10.24-1.28-16-3.84-14.08-6.4-28.16-12.16-42.24-18.56l-7.68-3.84zM826.24 348.8c4.48 30.72-8.96 61.44-35.2 78.08l-124.8 80.64a20.416 20.416 0 0 0-8.96 17.28l7.04 148.48c1.28 21.76-6.4 42.24-21.76 58.24-14.72 15.36-35.84 24.32-57.6 24.32-17.92 0-35.84-6.4-49.28-17.92l-115.2-93.44c-3.2-2.56-7.68-4.48-12.16-4.48-2.56 0-4.48 0-7.04 1.28L262.4 693.76c-8.96 3.2-18.56 5.12-28.16 5.12-26.24 0-50.56-12.8-65.28-34.56-14.72-21.12-17.92-48.64-8.32-72.96l53.12-138.88c2.56-6.4 1.28-14.08-3.2-19.2L117.76 317.44c-19.2-23.68-23.04-55.68-9.6-83.2 13.44-27.52 40.32-44.8 71.04-44.8h3.84l148.48 7.68c7.68 0 13.44-3.2 17.28-8.96L430.08 64c14.72-22.4 39.04-35.84 65.92-35.84 35.84 0 67.2 24.32 76.16 58.24l38.4 143.36c1.92 6.4 7.04 12.16 14.08 14.08L768 282.88c30.08 8.32 52.48 33.28 56.96 64z m-74.24-1.92l-143.36-39.04c-28.8-7.68-51.2-30.08-58.88-58.88l-38.4-143.36c-1.92-7.04-8.32-10.88-14.72-10.88-4.48 0-9.6 1.92-12.16 7.04L403.2 225.92c-15.36 23.68-41.6 37.76-69.76 37.76h-4.48L180.48 256h-0.64c-12.16 0-19.2 14.72-11.52 24.32l92.8 115.84c18.56 23.04 23.68 54.4 12.8 82.56l-53.12 138.88c-3.84 10.24 3.84 20.48 14.08 20.48 1.92 0 3.84 0 5.12-1.28l138.88-52.48c9.6-3.84 19.84-5.12 29.44-5.12 18.56 0 37.76 6.4 52.48 18.56L576 691.2s6.4 3.2 9.6 3.2c7.68 0 15.36-6.4 14.72-15.36l-7.04-148.48c-1.28-29.44 12.8-58.24 37.76-74.24l124.8-80.64c10.88-7.04 8.32-23.68-4.48-26.88z"  horiz-adv-x="1024" />
      
      <glyph glyph-name="ai-icon_AIgongju_mianxing" unicode="&#58945;" d="M931.84-10.88a44.16 44.16 0 0 1-13.44 20.48c-62.08 59.52-124.8 118.4-186.88 177.92-2.56 1.92-4.48 4.48-7.04 6.4a42.112 42.112 0 0 1-24.32 7.68c-7.68 0-15.36-1.92-21.76-6.4-15.36-9.6-21.76-23.68-19.84-40.96 1.28-10.24 6.4-18.56 14.08-26.24 58.24-55.68 117.12-111.36 175.36-167.04 5.12-5.12 10.24-9.6 15.36-14.08 7.68-7.04 17.28-10.88 30.08-10.88 26.24 0 46.08 26.24 38.4 53.12zM775.04 676.48c3.2 0 7.04 0 10.88 1.28 12.16 2.56 21.12 9.6 27.52 20.48 13.44 24.32 26.88 49.28 39.68 74.24 0 0 0 1.28 0.64 1.92 12.16 28.16-7.68 58.24-42.24 58.24-12.8 0-25.6-7.68-33.92-22.4l-38.4-71.04c0-1.28-1.28-2.56-1.92-3.84-6.4-15.36-5.12-30.08 5.76-42.88 8.32-10.24 19.2-15.36 31.36-15.36zM820.48 609.92c-14.72-9.6-22.4-27.52-17.92-44.16a42.304 42.304 0 0 1 56.96-28.8c16 6.4 32 13.44 48 21.12 17.92 8.32 26.88 27.52 22.4 46.72-4.48 18.56-21.12 31.36-42.24 31.36h-1.28c-5.12 0-10.24-1.28-16-3.84-14.08-6.4-28.16-12.16-42.24-18.56l-7.68-3.84zM826.24 348.8c4.48 30.72-8.96 61.44-35.2 78.08l-124.8 80.64a20.416 20.416 0 0 0-8.96 17.28l7.04 148.48c1.28 21.76-6.4 42.24-21.76 58.24-14.72 15.36-35.84 24.32-57.6 24.32-17.92 0-35.84-6.4-49.28-17.92l-115.2-93.44c-3.2-2.56-7.68-4.48-12.16-4.48-2.56 0-4.48 0-7.04 1.28L262.4 693.76c-8.96 3.2-18.56 5.12-28.16 5.12-26.24 0-50.56-12.8-65.28-34.56-14.72-21.12-17.92-48.64-8.32-72.96l53.12-138.88c2.56-6.4 1.28-14.08-3.2-19.2L117.76 317.44c-19.2-23.68-23.04-55.68-9.6-83.2 13.44-27.52 40.32-44.8 71.04-44.8h3.84l148.48 7.68c7.68 0 13.44-3.2 17.28-8.96L430.08 64c14.72-22.4 39.04-35.84 65.92-35.84 35.84 0 67.2 24.32 76.16 58.24l38.4 143.36c1.92 6.4 7.04 12.16 14.08 14.08L768 282.88c30.08 8.32 52.48 33.28 56.96 64z"  horiz-adv-x="1024" />
      
      <glyph glyph-name="ai-icon_zuopinguanli_mianxing" unicode="&#58940;" d="M237.44 414.72l243.84 243.84-143.36 143.36c-49.92 49.92-131.2 49.92-181.12 0l-62.72-62.72c-49.92-49.92-49.92-131.2 0-181.12l143.36-143.36zM929.92 209.92l-143.36 143.36-243.2-243.84 142.72-142.72c49.92-49.92 131.2-49.92 181.12 0l62.72 62.72c49.92 49.92 49.92 131.2 0 181.12zM611.84 721.92l-483.2-483.84 238.08-237.44 482.56 483.2-237.44 238.08zM103.04 195.2l-35.84-219.52c-3.84-21.76 15.36-40.32 37.12-37.12l219.52 35.84h1.28l-221.44 221.44v-1.28zM919.68 554.24c49.92 49.92 49.92 131.2 0 181.76l-55.68 55.68c-49.92 49.92-131.2 49.92-181.76 0l-36.48-36.48 237.44-237.44 36.48 36.48z"  horiz-adv-x="1024" />
      
      <glyph glyph-name="ai-icon_warn" unicode="&#58927;" d="M806.4 678.4A412.8 412.8 0 0 1 512 800c-110.08 0-216.32-43.52-294.4-121.6A412.8 412.8 0 0 1 96 384c0-110.08 43.52-216.32 121.6-294.4A412.8 412.8 0 0 1 512-32c110.08 0 216.32 43.52 294.4 121.6A412.8 412.8 0 0 1 928 384c0 110.08-43.52 216.32-121.6 294.4zM480 606.72c0 16 14.08 28.16 32 28.16s32-12.8 32-28.16v-295.04c0-16-14.08-28.16-32-28.16s-32 12.8-32 28.16V606.72zM512 128c-28.8 0-51.84 23.04-51.84 51.84s23.04 51.84 51.84 51.84 51.84-23.04 51.84-51.84S540.8 128 512 128z"  horiz-adv-x="1024" />
      
      <glyph glyph-name="ai-icon_shuyuguanli_mianxing" unicode="&#58928;" d="M487.04 368.64h85.12l-42.88 106.88-42.24-106.88zM814.08 832H245.12c-70.4 0-128-57.6-128-128v-135.68h75.52c35.2 0 64-28.8 64-64s-28.8-64-64-64H117.12v-113.28h75.52c35.2 0 64-28.8 64-64s-28.8-64-64-64H117.12v-135.68c0-70.4 57.6-128 128-128h568.32c70.4 0 128 57.6 128 128V704c0 70.4-57.6 128-128 128z m-181.12-615.68l-40.96 103.04H467.2l-40.96-103.04h-60.8L499.2 551.04h61.44l133.76-334.72H633.6zM192.64 536.32h-115.2c-17.92 0-32-14.08-32-32s14.08-32 32-32h115.2c17.92 0 32 14.08 32 32s-14.08 32-32 32zM192.64 295.68h-115.2c-17.92 0-32-14.08-32-32s14.08-32 32-32h115.2c17.92 0 32 14.08 32 32s-14.08 32-32 32z"  horiz-adv-x="1024" />
      
      <glyph glyph-name="ai-icon_zuopinguanli_xianxing" unicode="&#58929;" d="M247.68 839.04c-32.64 0-65.28-12.8-90.24-37.76l-62.72-62.72c-49.92-49.92-49.92-131.2 0-181.12l177.28-177.28-149.76-149.76a64 64 0 0 1-17.92-35.84l-35.84-219.52c-3.2-19.84 12.16-37.12 31.36-37.12h5.12l219.52 35.84c13.44 1.92 26.24 8.32 35.84 18.56l149.76 150.4 176.64-176.64c24.96-24.96 57.6-37.76 90.24-37.76s65.28 12.8 90.24 37.76l62.72 62.72c49.92 49.92 49.92 131.2 0 181.12l-177.28 177.28 167.04 167.68c49.92 49.92 49.92 131.2 0 181.76l-55.68 55.68c-24.96 24.96-58.24 37.76-90.88 37.76s-65.92-12.8-90.88-37.76L515.2 625.28 337.92 802.56c-24.96 24.96-57.6 37.76-90.24 37.76z m69.12-412.8L139.52 603.52a63.744 63.744 0 0 0 0 90.24l62.72 62.72c12.16 12.16 28.16 18.56 45.44 18.56s33.28-6.4 45.44-18.56l177.28-177.28-152.96-152.96z m526.72 142.72l-147.2 147.2 30.72 30.72c12.16 12.16 28.16 18.56 45.44 18.56s33.28-6.4 45.44-18.56l55.68-55.68c24.96-24.96 24.96-65.92 0-90.88l-30.72-30.72z m-516.48-517.12l-147.2 147.2 136.96 136.96 243.84 243.84 91.52 91.52 147.2-147.2-471.68-471.68z m449.28-58.88a63.36 63.36 0 0 0-45.44 18.56l-176.64 176.64 152.96 152.96 177.28-177.28c24.96-24.96 24.96-65.28 0-90.24l-62.72-62.72a63.36 63.36 0 0 0-45.44-18.56z m-638.72 16l19.84 121.6 101.76-101.76-121.6-19.84z"  horiz-adv-x="1024" />
      
      <glyph glyph-name="ai-icon_success" unicode="&#58931;" d="M512 832a448 448 0 1 1 0-896A448 448 0 0 1 512 832z m234.624-329.344l-284.16-282.624a32 32 0 0 0-45.12 0L277.376 359.36a32 32 0 1 0 45.12 45.312l117.44-116.864 261.568 260.224a32 32 0 1 0 45.12-45.44z"  horiz-adv-x="1024" />
      
      <glyph glyph-name="ai-icon_shuyuguanli_xianxing" unicode="&#58932;" d="M117.12 424.32h64v-81.28h-64zM814.08 832H245.12c-70.4 0-128-57.6-128-128v-119.68h64V704c0 35.2 28.8 64 64 64h568.32c35.2 0 64-28.8 64-64v-640c0-35.2-28.8-64-64-64H245.12c-35.2 0-64 28.8-64 64v119.68h-64V64c0-70.4 57.6-128 128-128h568.32c70.4 0 128 57.6 128 128V704c0 70.4-57.6 128-128 128zM632.96 216.32h60.8L560 551.04h-61.44L364.8 216.32h60.8l40.96 103.04h124.8l40.96-103.04zM487.04 368.64l42.88 107.52 42.88-107.52H487.04zM192.64 536.32h-115.2c-17.92 0-32-14.08-32-32s14.08-32 32-32h115.2c17.92 0 32 14.08 32 32s-14.08 32-32 32zM192.64 295.68h-115.2c-17.92 0-32-14.08-32-32s14.08-32 32-32h115.2c17.92 0 32 14.08 32 32s-14.08 32-32 32z"  horiz-adv-x="1024" />
      
      <glyph glyph-name="ai-icon_shouye_xianxing" unicode="&#58933;" d="M512 768c13.44 0 26.24-3.84 37.12-11.52l319.36-224.64c17.28-12.16 27.52-31.36 27.52-52.48V64c0-35.2-28.8-64-64-64H193.28c-35.2 0-64 28.8-64 64V479.36c0 21.12 10.24 40.32 27.52 52.48l319.36 224.64c10.88 7.68 23.68 11.52 37.12 11.52M512 832c-25.6 0-51.84-7.68-73.6-23.04L119.04 583.68c-33.92-23.68-54.4-63.36-54.4-104.96v-415.36a128 128 0 0 1 128-128h638.72a128 128 0 0 1 128 128V478.72c0 41.6-20.48 80.64-54.4 104.96L585.6 808.32A129.92 129.92 0 0 1 512 831.36zM513.28 160.64c-55.04 0-107.52 16-151.04 45.44a31.36 31.36 0 0 0-8.32 44.16 31.36 31.36 0 0 0 44.16 8.32c65.92-44.16 162.56-44.8 229.12-1.28a31.872 31.872 0 0 0 35.2-53.12c-43.52-28.8-94.72-44.16-149.12-44.16z"  horiz-adv-x="1024" />
      
      <glyph glyph-name="ai-icon_tianjia" unicode="&#58934;" d="M464 768m48 0l0 0q48 0 48-48l0-672q0-48-48-48l0 0q-48 0-48 48l0 672q0 48 48 48ZM896 432m0-48l0 0q0-48-48-48l-672 0q-48 0-48 48l0 0q0 48 48 48l672 0q48 0 48-48Z"  horiz-adv-x="1024" />
      
      <glyph glyph-name="ai-icon_liebiaoshitu" unicode="&#58935;" d="M831.36 768c35.2 0 64-28.8 64-64v-128c0-35.2-28.8-64-64-64h-640c-35.2 0-64 28.8-64 64V704c0 35.2 28.8 64 64 64h640m0 64h-640c-70.4 0-128-57.6-128-128v-128c0-70.4 57.6-128 128-128h640c70.4 0 128 57.6 128 128V704c0 70.4-57.6 128-128 128zM832 256c35.2 0 64-28.8 64-64v-128c0-35.2-28.8-64-64-64H192c-35.2 0-64 28.8-64 64v128c0 35.2 28.8 64 64 64h640m0 64H192c-70.4 0-128-57.6-128-128v-128c0-70.4 57.6-128 128-128h640c70.4 0 128 57.6 128 128v128c0 70.4-57.6 128-128 128z"  horiz-adv-x="1024" />
      
      <glyph glyph-name="ai-icon_action" unicode="&#58936;" d="M291.84 632.96v-497.92c0-49.28 53.12-80 96-55.68l431.36 248.96a63.744 63.744 0 0 1 0 110.72L387.84 688c-42.88 24.32-96-6.4-96-55.68z"  horiz-adv-x="1024" />
      
      <glyph glyph-name="ai-icon_shouye_mianxing" unicode="&#58937;" d="M904.96 583.68L585.6 808.32c-44.16 31.36-103.04 31.36-147.2 0L119.04 583.68c-33.92-23.68-54.4-63.36-54.4-104.96v-415.36a128 128 0 0 1 128-128h638.72a128 128 0 0 1 128 128V478.72c0 41.6-20.48 80.64-54.4 104.96z m-242.56-378.88c-43.52-28.8-94.72-43.52-149.12-43.52s-107.52 16-151.04 45.44a31.36 31.36 0 0 0-8.32 44.16 31.36 31.36 0 0 0 44.16 8.32c65.92-44.8 162.56-44.8 229.12-1.28a31.872 31.872 0 0 0 35.2-53.12z"  horiz-adv-x="1024" />
      
      <glyph glyph-name="ai-icon_kapianshitu" unicode="&#58938;" d="M346.24 768c35.2 0 64-28.8 64-64v-154.24c0-35.2-28.8-64-64-64H192c-35.2 0-64 28.8-64 64V704c0 35.2 28.8 64 64 64h154.24m0 64H192c-70.4 0-128-57.6-128-128v-154.24c0-70.4 57.6-128 128-128h154.24c70.4 0 128 57.6 128 128V704c0 70.4-57.6 128-128 128zM832 768c35.2 0 64-28.8 64-64v-154.24c0-35.2-28.8-64-64-64h-154.24c-35.2 0-64 28.8-64 64V704c0 35.2 28.8 64 64 64H832m0 64h-154.24c-70.4 0-128-57.6-128-128v-154.24c0-70.4 57.6-128 128-128H832c70.4 0 128 57.6 128 128V704c0 70.4-57.6 128-128 128zM832 282.24c35.2 0 64-28.8 64-64V64c0-35.2-28.8-64-64-64h-154.24c-35.2 0-64 28.8-64 64v154.24c0 35.2 28.8 64 64 64H832m0 64h-154.24c-70.4 0-128-57.6-128-128V64c0-70.4 57.6-128 128-128H832c70.4 0 128 57.6 128 128v154.24c0 70.4-57.6 128-128 128zM346.24 282.24c35.2 0 64-28.8 64-64V64c0-35.2-28.8-64-64-64H192c-35.2 0-64 28.8-64 64v154.24c0 35.2 28.8 64 64 64h154.24m0 64H192c-70.4 0-128-57.6-128-128V64c0-70.4 57.6-128 128-128h154.24c70.4 0 128 57.6 128 128v154.24c0 70.4-57.6 128-128 128z"  horiz-adv-x="1024" />
      
      <glyph glyph-name="ai-icon_deleted" unicode="&#58939;" d="M880.64 720H142.72c-18.56 0-33.28-14.72-33.28-33.28s14.72-33.28 33.28-33.28h737.92c18.56 0 33.28 14.72 33.28 33.28s-14.72 33.28-33.28 33.28zM421.76 764.8c-18.56 0-33.28 14.72-33.28 33.28s14.72 33.28 33.28 33.28h179.2c18.56 0 33.28-14.72 33.28-33.28s-14.72-33.28-33.28-33.28h-179.2zM388.48 462.72c0 18.56 14.72 33.28 33.28 33.28s33.28-14.72 33.28-33.28v-268.16c0-18.56-14.72-33.28-33.28-33.28s-33.28 14.72-33.28 33.28V462.72zM567.68 462.72c0 18.56 14.72 33.28 33.28 33.28s33.28-14.72 33.28-33.28v-268.16c0-18.56-14.72-33.28-33.28-33.28s-33.28 14.72-33.28 33.28V462.72zM805.76 584.96h-7.04a33.28 33.28 0 0 1-30.08-32.64v-492.16c0-14.72-5.76-28.8-16.64-39.68-10.24-10.24-24.96-16.64-39.68-16.64H309.76a55.68 55.68 0 0 0-39.68 16.64 57.344 57.344 0 0 0-16.64 39.68V554.24a31.808 31.808 0 0 1-32 30.72h-2.56c-17.28 0-30.72-13.44-32-30.72v-494.08c0-67.84 55.04-122.88 122.88-122.88h402.56c67.84 0 122.88 55.04 122.88 122.88V552.32a33.28 33.28 0 0 1-30.08 32.64z"  horiz-adv-x="1024" />
      
      <glyph glyph-name="ai-icon_fail" unicode="&#58941;" d="M512 832a448 448 0 1 1 0-896A448 448 0 0 1 512 832z m176.128-578.88a32 32 0 0 0-45.248-45.248L512 338.752l-130.88-130.88a32 32 0 0 0-45.248 45.248L466.752 384 335.872 514.88a32 32 0 1 0 45.248 45.248L512 429.248l130.88 130.88a32 32 0 1 0 45.248-45.248L557.248 384l130.88-130.88z"  horiz-adv-x="1024" />
      
      <glyph glyph-name="ai-icon_beizhu_xianxing" unicode="&#58942;" d="M832 713.6c35.2 0 64-28.8 64-64v-421.12c0-35.2-28.8-64-64-64h-186.24c-38.4 0-74.24-16.64-98.56-46.08l-35.2-42.24-35.2 42.24c-24.32 29.44-60.16 46.08-98.56 46.08H192c-35.2 0-64 28.8-64 64V650.24c0 35.2 28.8 64 64 64h640.64M832 777.6H192a128 128 0 0 1-128-128v-421.12a128 128 0 0 1 128-128h186.24c19.2 0 37.12-8.32 49.28-23.04l59.52-71.68c6.4-7.68 15.36-11.52 24.96-11.52s18.56 3.84 24.96 11.52l59.52 71.68c12.16 14.72 30.08 23.04 49.28 23.04H832a128 128 0 0 1 128 128V650.24a128 128 0 0 1-128 128zM292.48 443.52m-48 0a48 48 0 1 1 96 0 48 48 0 1 1-96 0ZM512 443.52m-48 0a48 48 0 1 1 96 0 48 48 0 1 1-96 0ZM731.52 443.52m-48 0a48 48 0 1 1 96 0 48 48 0 1 1-96 0Z"  horiz-adv-x="1024" />
      
      <glyph glyph-name="ai-icon_beizhu_mianxing" unicode="&#58943;" d="M832.256 777.792H191.744A127.744 127.744 0 0 1 64 649.984v-420.928c0-70.528 57.216-127.744 127.744-127.744h186.56c19.136 0 37.184-8.512 49.344-23.232l59.584-71.872c12.864-15.552 36.672-15.552 49.536 0l59.52 71.872c12.16 14.72 30.272 23.232 49.408 23.232h186.56A127.744 127.744 0 0 1 960 229.056V649.984a127.744 127.744 0 0 1-127.744 127.808zM292.288 395.392a48 48 0 1 0 0 96 48 48 0 0 0 0-96z m219.712 0a48 48 0 1 0 0 96 48 48 0 0 0 0-96z m219.712 0a48 48 0 1 0 0 96 48 48 0 0 0 0-96z"  horiz-adv-x="1024" />
      
      <glyph glyph-name="ai-icon_loading" unicode="&#58925;" d="M88.96 355.84c0 35.84 28.16 64 64 64 42.88 0 71.04-28.16 71.04-64 0-42.88-28.16-71.04-71.04-71.04-35.84 0-64 28.16-64 71.04z m85.12 248.32c0 49.92 35.84 92.16 85.12 92.16s92.16-42.88 92.16-92.16-42.88-85.12-92.16-85.12-85.12 35.84-85.12 85.12z m35.84-504.32c0 28.16 21.12 49.92 49.92 49.92s49.92-21.12 49.92-49.92-21.12-49.92-49.92-49.92-49.92 21.12-49.92 49.92z m248.96-106.88c0 35.84 21.12 56.96 56.96 56.96s56.96-21.12 56.96-56.96-21.12-56.96-56.96-56.96-56.96 21.12-56.96 56.96z m277.12 106.88c0 21.12 14.08 35.84 35.84 35.84s35.84-14.08 35.84-35.84-14.08-35.84-35.84-35.84-35.84 14.08-35.84 35.84z m78.08 256c0 28.16 28.16 56.96 64 56.96 28.16 0 56.96-28.16 56.96-56.96 0-35.84-28.16-64-56.96-64-35.84 0-64 28.16-64 64z m-163.2 248.32c0 71.04 56.96 120.96 120.96 120.96s120.96-49.92 120.96-120.96c0-64-56.96-120.96-120.96-120.96s-120.96 56.96-120.96 120.96z m-256 106.88c0 64 56.96 120.96 120.96 120.96s120.96-56.96 120.96-120.96-56.96-120.96-120.96-120.96-120.96 56.96-120.96 120.96z m0 0"  horiz-adv-x="1024" />
      
      <glyph glyph-name="ai-icon_baocunzhong" unicode="&#59178;" d="M802.24 488.128a288.384 288.384 0 0 1-287.36 269.184 288.384 288.384 0 0 1-287.296-267.328A244.352 244.352 0 0 1 56.192 256a245.632 245.632 0 0 1 312.32-236.032 32 32 0 0 1-17.408 61.568A181.504 181.504 0 0 0 120.192 256c0 84.352 57.216 156.864 139.2 176.448a31.552 31.552 0 0 1 13.12 6.528l6.848 5.76a32 32 0 0 1 11.52 24.576c0 123.52 100.48 224 224 224s224-100.48 224-224c0-2.176 1.344-10.048 1.792-12.224a32 32 0 0 1 23.936-24.64A180.736 180.736 0 0 0 903.808 256a181.504 181.504 0 0 0-230.912-174.464 32 32 0 0 1-17.408-61.632A245.632 245.632 0 0 1 967.808 256a244.48 244.48 0 0 1-165.568 232.192zM644.48 275.968a32.128 32.128 0 0 1 45.248 0.128 32 32 0 0 1-0.192 45.248L560 449.984a64.128 64.128 0 0 1-90.304-0.384L344.256 323.84a32 32 0 1 1 45.312-45.12l93.248 93.568v-286.912a32 32 0 1 1 64 0V372.864l97.664-96.896z"  horiz-adv-x="1024" />
      
      <glyph glyph-name="ai-icon_baocunchenggong" unicode="&#59179;" d="M770.944 572.48C748.032 633.6 683.904 736 512 736c-182.464 0-237.44-125.12-259.072-193.664C175.232 532.288 53.312 475.52 53.312 330.688c0-141.696 109.184-192 202.688-192a32 32 0 1 1 0 64c-41.728 0-138.688 12.48-138.688 128 0 140.544 158.4 149.312 160 149.312 14.272 0 26.88 9.472 30.784 23.168C333.12 590.848 375.232 672 512 672c143.36 0 189.312-85.696 203.904-136.832a32.192 32.192 0 0 1 27.136-23.04c6.72-0.64 163.648-20.864 163.648-170.816 0-120.64-86.912-138.624-138.688-138.624a32 32 0 1 1 0-64c97.984 0 202.688 53.248 202.688 202.624 0 152.064-120.832 215.104-199.744 231.168zM657.664 297.344L507.392 109.44 404.48 195.2a32 32 0 0 1-40.96-49.152l128-106.688a32.128 32.128 0 0 1 45.44 4.608l170.688 213.312a32 32 0 0 1-49.92 40z"  horiz-adv-x="1024" />
      
      <glyph glyph-name="ai-icon_xinzeng" unicode="&#59180;" d="M768 416H544V640a32 32 0 1 1-64 0v-224H256a32 32 0 1 1 0-64h224V128a32 32 0 1 1 64 0V352H768a32 32 0 1 1 0 64z"  horiz-adv-x="1024" />
      
      <glyph glyph-name="ai-icon_hebing" unicode="&#59181;" d="M534.656 278.592a32 32 0 0 1-45.312 0l-109.504-109.504a32 32 0 1 1 45.248-45.248l54.912 54.912V-64a32 32 0 1 1 64 0v242.752l54.912-54.912a31.872 31.872 0 0 1 45.248 0 32 32 0 0 1 0 45.248l-109.44 109.44zM489.344 489.408a32 32 0 0 1 45.312 0l109.504 109.504a32 32 0 1 1-45.248 45.248l-54.912-54.912V832a32 32 0 1 1-64 0v-242.752l-54.912 54.912a32 32 0 1 1-45.248-45.248l109.44-109.44zM768 416H256a32 32 0 1 1 0-64h512a32 32 0 1 1 0 64z"  horiz-adv-x="1024" />
      
      <glyph glyph-name="ai-icon_huanhang" unicode="&#59182;" d="M352 211.648H192a32 32 0 1 1 0-64h160a32 32 0 1 1 0 64zM864 419.648a272.256 272.256 0 0 1-272 272H192a32 32 0 1 1 0-64h400a208.256 208.256 0 0 0 208-208 208 208 0 0 0-204.672-207.68l81.984 82.048a32 32 0 1 1-45.248 45.248l-136.96-136.96a32 32 0 0 1 0-45.312l136.96-136.96a31.872 31.872 0 0 1 45.248 0 32 32 0 0 1 0 45.248l-82.56 82.624A272.128 272.128 0 0 1 864 419.648z"  horiz-adv-x="1024" />
      
      <glyph glyph-name="ai-icon_daoru" unicode="&#59183;" d="M896 207.104a32 32 0 0 1-32-32c0-52.928-43.072-96-96-96H256c-52.928 0-96 43.072-96 96a32 32 0 1 1-64 0c0-88.256 71.808-160 160-160h512c88.192 0 160 71.744 160 160a32 32 0 0 1-32 32zM394.24 557.248l85.824 85.76v-370.112a32 32 0 1 1 64 0V642.88l85.632-85.632a31.872 31.872 0 0 1 45.248 0 32 32 0 0 1 0 45.248L536.32 741.184a31.488 31.488 0 0 1-24.192 11.712 31.552 31.552 0 0 1-23.936-11.328L348.992 602.496a32 32 0 1 1 45.248-45.248z"  horiz-adv-x="1024" />
      
      <glyph glyph-name="ai-icon_yiwen" unicode="&#59174;" d="M957.568 396.16a32 32 0 0 1-52.224 10.432l-106.88-106.88a32 32 0 1 1 45.248-45.248l41.792 41.792C845.632 126.656 693.504 0 512 0a382.464 382.464 0 0 0-324.864 179.2 32.064 32.064 0 0 1-54.144-34.112A446.08 446.08 0 0 1 512-64c247.04 0 448 200.96 448 448a32 32 0 0 1-2.432 12.16zM118.656 361.408l106.88 106.944a32 32 0 1 1-45.248 45.248l-41.792-41.792C178.432 641.344 330.56 768 512 768a383.296 383.296 0 0 0 339.84-205.056 32.064 32.064 0 0 1 56.64 29.888A447.168 447.168 0 0 1 512 832C264.96 832 64 631.04 64 384a32 32 0 0 1 54.656-22.592zM662.912 312.192L541.312 588.8c-10.24 23.232-48.384 23.232-58.624 0l-121.6-276.672-0.32-0.832-48.64-106.048a32.256 32.256 0 0 1 15.872-42.432 32.32 32.32 0 0 1 42.432 15.808l40.256 88h202.688l40.192-88a32 32 0 0 1 58.24 26.624l-48.512 106.048-0.384 0.832z m-223.808 18.496L512 496.448l72.96-165.76H439.04z"  horiz-adv-x="1024" />
      
      <glyph glyph-name="ai-icon_fanyi" unicode="&#59173;" d="M925.12 13.312l-48.448 105.984a5.632 5.632 0 0 1-0.448 0.832l-121.6 276.736c-10.24 23.232-48.384 23.232-58.56 0l-72.832-165.76a31.04 31.04 0 0 1-14.4 12.032c-1.408 0.512-128.128 49.92-218.88 112.512 3.648 3.584 7.68 6.912 11.328 10.56 79.616 81.28 120.96 209.28 135.68 263.04h60.416a32 32 0 1 1 0 64H392.32a31.36 31.36 0 0 1 0.704 20.864l-21.312 64a32 32 0 0 1-60.672-20.224l21.312-64c0.064-0.256 0.32-0.384 0.384-0.64H128a32 32 0 1 1 0-64h342.272c-16.448-54.784-53.056-155.328-114.688-218.24-4.864-4.992-10.432-9.664-15.616-14.528-66.56 68.544-95.552 165.952-95.872 167.04a32 32 0 0 1-61.504-17.6c1.472-5.184 32.576-111.232 108.48-191.232a1268.288 1268.288 0 0 0-177.472-112.832 32 32 0 1 1 28.8-57.152c5.248 2.624 107.328 54.784 198.08 127.552 98.048-71.616 239.168-126.464 245.44-128.832 3.712-1.472 7.616-2.112 11.456-2.112 1.6 0 2.944 1.152 4.544 1.408l-27.52-62.528-0.384-0.896-48.448-105.984a31.808 31.808 0 0 1 15.808-42.432 32.128 32.128 0 0 1 42.432 15.808l40.192 88h202.688l40.192-88a32 32 0 1 1 58.24 26.624z m-272.64 125.376l72.896 165.76 72.832-165.76h-145.728z"  horiz-adv-x="1024" />
      
      <glyph glyph-name="ai-icon_shanchu" unicode="&#59172;" d="M896 717.696H128a32 32 0 1 1 0-64h768a32 32 0 1 1 0 64zM421.824 767.168H602.24a32 32 0 1 1 0 64H421.76a32 32 0 1 1 0-64zM452.48 192.896v268.16a32 32 0 1 1-64 0v-268.16a32 32 0 1 1 64 0zM632.768 192.896v268.16a32 32 0 1 1-64 0v-268.16a32 32 0 1 1 64 0zM805.12 572.032a32 32 0 0 1-32-32v-439.168c0-55.168-51.52-100.032-114.816-100.032H365.696c-63.296 0-114.816 44.8-114.816 100.032V540.032a32 32 0 1 1-64 0v-439.168c0-90.432 80.256-164.032 178.816-164.032h292.608c98.56 0 178.816 73.6 178.816 164.032V540.032a32 32 0 0 1-32 32z"  horiz-adv-x="1024" />
      
      <glyph glyph-name="ai-icon_quanping" unicode="&#59171;" d="M864 253.568a32 32 0 0 1-32-32l2.048-115.008-276.736 276.736 274.112 274.176 0.256-110.4a32 32 0 0 1 32-32h0.064a32 32 0 0 1 32 32.128l-0.384 159.36a60.288 60.288 0 0 1-10.368 32 31.872 31.872 0 0 1-7.04 10.624l-0.256 0.128c-0.192 0.256-0.256 0.64-0.512 0.832a58.624 58.624 0 0 1-43.52 17.856l-159.36-0.32a32 32 0 0 1 0.064-64h0.064l114.752 2.048-277.12-277.184L237.248 703.36h111.68a32 32 0 1 1 0 64h-159.36a59.776 59.776 0 0 1-30.72-9.408 31.168 31.168 0 0 1-13.824-7.68 31.168 31.168 0 0 1-7.68-13.824 59.776 59.776 0 0 1-9.344-30.656v-159.36a32 32 0 1 1 64 0L190.208 659.84 466.816 383.36l-274.24-274.24-0.256 111.872a32 32 0 0 1-32 32h-0.064a32 32 0 0 1-32-32.128l0.384-159.744c0-15.936 6.336-30.72 17.28-42.24 0.32-0.256 0.448-0.64 0.704-0.96l0.064-0.128c11.52-11.392 26.816-17.728 43.008-17.728h0.256l159.744 0.32a32 32 0 0 1-0.064 64h-0.064l-113.536-2.24 276.032 275.968 273.408-273.408h-110.4a32 32 0 1 1 0-64h159.744a61.248 61.248 0 0 1 61.184 61.184v159.744a32 32 0 0 1-32 32z"  horiz-adv-x="1024" />
      
      <glyph glyph-name="ai-icon_kuaitui" unicode="&#59170;" d="M639.616 648.832l-267.52-200.64a80.256 80.256 0 0 1 0-128.384l267.52-200.64c52.864-39.68 128.384-1.92 128.384 64.192v401.28c0 66.112-75.52 103.872-128.384 64.192zM339.2 281.472C306.752 305.92 288 343.232 288 384s18.688 78.08 51.2 102.528l182.272 136.64a32.064 32.064 0 0 1-38.4 51.264L300.928 537.728C251.968 501.12 224 445.056 224 384s27.968-117.12 76.864-153.728l182.272-136.704a31.872 31.872 0 0 1 44.8 6.4 32.064 32.064 0 0 1-6.4 44.8L339.2 281.536z"  horiz-adv-x="1024" />
      
      <glyph glyph-name="ai-icon_kuaijin" unicode="&#59175;" d="M651.904 448.192l-267.52 200.64C331.52 688.512 256 650.752 256 584.64v-401.28c0-66.112 75.52-103.872 128.384-64.192l267.52 200.64a80.256 80.256 0 0 1 0 128.384zM723.136 537.728L540.8 674.432a32.064 32.064 0 0 1-38.4-51.2L684.8 486.464c32.576-24.448 51.264-61.76 51.264-102.528s-18.688-78.08-51.2-102.528l-182.272-136.64a32.064 32.064 0 0 1 38.4-51.264l182.208 136.704C771.968 266.88 800 322.944 800 384s-28.032 117.12-76.864 153.728z"  horiz-adv-x="1024" />
      
      <glyph glyph-name="ai-icon_zanting2" unicode="&#59169;" d="M512 832C264.96 832 64 631.04 64 384s200.96-448 448-448 448 200.96 448 448-200.96 448-448 448z m-96-576a32 32 0 1 0-64 0V512a32 32 0 1 0 64 0v-256z m256 0a32 32 0 1 0-64 0V512a32 32 0 1 0 64 0v-256z"  horiz-adv-x="1024" />
      
      <glyph glyph-name="ai-icon_bofang3" unicode="&#59168;" d="M512 832C264.96 832 64 631.04 64 384s200.96-448 448-448 448 200.96 448 448-200.96 448-448 448z m178.048-492.928l-216.576-123.776a51.392 51.392 0 0 0-51.712 0.256 51.2 51.2 0 0 0-25.6 44.672V507.776a51.2 51.2 0 0 0 25.6 44.672 51.52 51.52 0 0 0 51.648 0.256l216.64-123.776a51.904 51.904 0 0 0 0-89.856z"  horiz-adv-x="1024" />
      
      <glyph glyph-name="ai-icon_zimudaoru2" unicode="&#59167;" d="M768 800H256A160.192 160.192 0 0 1 96 640v-512c0-88.256 71.808-160 160-160h512c88.192 0 160 71.744 160 160V640c0 88.256-71.808 160-160 160zM379.84 488.896L489.344 598.4a32 32 0 0 0 45.312 0l109.504-109.568a32 32 0 1 0-45.248-45.248l-54.848 54.848v-178.304a32 32 0 1 0-64 0V498.56l-55.04-55.04a32 32 0 1 0-45.184 45.312zM768 160H256a32 32 0 1 0 0 64h512a32 32 0 1 0 0-64z"  horiz-adv-x="1024" />
      
      <glyph glyph-name="ai-icon_zimudaoru1" unicode="&#59176;" d="M768 800H256A160.192 160.192 0 0 1 96 640v-512c0-88.256 71.808-160 160-160h512c88.192 0 160 71.744 160 160V640c0 88.256-71.808 160-160 160zM864 128c0-52.928-43.072-96-96-96H256c-52.928 0-96 43.072-96 96V640c0 52.928 43.072 96 96 96h512c52.928 0 96-43.072 96-96v-512zM768 224H256a32 32 0 1 1 0-64h512a32 32 0 1 1 0 64zM425.088 443.648L480 498.56v-178.432a32 32 0 1 1 64 0V498.496l54.848-54.848a31.872 31.872 0 0 1 45.248 0 32 32 0 0 1 0 45.248L534.656 598.4a32 32 0 0 1-45.312 0L379.84 488.896a32 32 0 1 1 45.248-45.248z"  horiz-adv-x="1024" />
      
      <glyph glyph-name="ai-icon_zimuQA2" unicode="&#59166;" d="M394.624 546.112a49.664 49.664 0 0 1-24.512 5.888 49.216 49.216 0 0 1-24.32-5.888 40.576 40.576 0 0 1-16-16.64 53.888 53.888 0 0 1-5.696-25.216v-145.28c0-9.856 1.92-18.368 5.632-25.472a39.168 39.168 0 0 1 16-16.512c6.976-3.84 15.104-5.76 24.384-5.76 5.504 0 9.728 2.048 14.4 3.392l-30.656 25.856 38.784 45.76 23.488-19.776V504.32a54.656 54.656 0 0 1-5.504 25.216 39.04 39.04 0 0 1-16 16.64zM620.48 369.024h68.288l-34.112 123.712-34.176-123.712zM818.752 758.72L542.528 850.752a96.768 96.768 0 0 1-60.992 0L205.248 758.784A159.68 159.68 0 0 1 96 607.104v-197.376a446.976 446.976 0 0 1 199.424-372.608l163.008-108.672a96.64 96.64 0 0 1 107.136 0l163.008 108.672A446.976 446.976 0 0 1 928 409.792V607.104a159.68 159.68 0 0 1-109.248 151.68zM478.144 235.52l-37.376 31.552c-3.648-2.56-6.784-5.696-10.88-7.808a127.232 127.232 0 0 0-59.776-13.248c-22.784 0-42.752 4.352-59.712 13.248a92.416 92.416 0 0 0-39.296 38.08 118.592 118.592 0 0 0-13.696 58.176V507.52c0 22.272 4.608 41.728 13.696 58.24 9.216 16.512 22.272 29.12 39.296 38.016 16.96 8.768 36.928 13.248 59.712 13.248a128 128 0 0 0 59.776-13.248c16.96-8.96 30.08-21.504 39.232-38.016 9.216-16.512 13.76-35.968 13.76-58.24v-152c0-14.528-2.688-27.456-6.656-39.552l40.384-33.92-38.464-46.528z m243.456 14.208l-15.744 57.28h-102.4l-15.808-57.28H520.128l112.768 363.52h43.52l112.704-363.52h-67.52z"  horiz-adv-x="1024" />
      
      <glyph glyph-name="ai-icon_zimuQA1" unicode="&#59177;" d="M818.752 758.72L542.528 850.752a96.768 96.768 0 0 1-60.992 0L205.248 758.784A159.68 159.68 0 0 1 96 607.104v-197.376a446.976 446.976 0 0 1 199.424-372.608l163.008-108.672a96.64 96.64 0 0 1 107.136 0l163.008 108.672A446.976 446.976 0 0 1 928 409.792V607.104a159.68 159.68 0 0 1-109.248 151.68z m45.248-348.928c0-128.64-63.872-248.064-170.88-319.36l-163.072-108.8a32.704 32.704 0 0 0-36.096 0l-163.008 108.8A383.04 383.04 0 0 0 160 409.728V607.04c0 41.28 26.304 77.824 65.472 90.88l276.416 92.16a33.024 33.024 0 0 0 20.288-0.064l276.352-92.096a95.68 95.68 0 0 0 65.472-90.88v-197.312zM482.88 355.52V507.52c0 22.272-4.544 41.728-13.76 58.24a92.8 92.8 0 0 1-39.232 38.016 128 128 0 0 1-59.776 13.248c-22.784 0-42.752-4.48-59.712-13.248-17.024-8.96-30.08-21.504-39.296-38.016a118.592 118.592 0 0 1-13.696-58.24v-152c0-22.208 4.608-41.6 13.696-58.176 9.216-16.64 22.272-29.312 39.296-38.08 16.96-8.896 36.928-13.248 59.712-13.248 22.912 0 42.752 4.352 59.776 13.248 4.096 2.112 7.232 5.184 10.88 7.808l37.376-31.552 38.464 46.464-40.32 33.92c3.84 12.16 6.592 25.088 6.592 39.616z m-112.768-44.288a49.152 49.152 0 0 0-24.32 5.76 39.168 39.168 0 0 0-16 16.512 54.08 54.08 0 0 0-5.696 25.472V504.32c0 9.6 1.92 18.048 5.632 25.216a40.64 40.64 0 0 0 16 16.64 49.216 49.216 0 0 0 24.384 5.888c9.408 0 17.536-1.984 24.512-5.888a39.04 39.04 0 0 0 16-16.64 54.656 54.656 0 0 0 5.504-25.216v-137.792l-23.488 19.84-38.784-45.824 30.656-25.856c-4.672-1.28-8.896-3.392-14.4-3.392zM632.896 613.248l-112.768-363.52h67.52l15.744 57.28h102.4l15.808-57.28h67.52l-112.768 363.52h-43.52z m-12.416-244.224l34.176 123.712 34.112-123.712H620.48z"  horiz-adv-x="1024" />
      
      <glyph glyph-name="ai-icon-dianhua" unicode="&#59129;" d="M812.8 275.2l-89.6 51.2c-12.8 0-25.6 6.4-38.4 0l-89.6-44.8s-70.4 12.8-121.6 70.4c-57.6 57.6-70.4 121.6-70.4 121.6L448 563.2v38.4l-44.8 83.2C396.8 697.6 384 704 371.2 704H268.8c-51.2 0-89.6-44.8-70.4-96 32-96 96-249.6 192-345.6 96-96 249.6-160 345.6-192 44.8-19.2 96 19.2 96 70.4v102.4c0 12.8-6.4 25.6-19.2 32z"  horiz-adv-x="1024" />
      
      <glyph glyph-name="a-ai-icon-shanchured" unicode="&#59156;" d="M808.96 675.2l-2.56 2.56C645.76 838.4 383.36 840.32 220.8 680.32A414.528 414.528 0 0 1 96 387.2c-1.28-111.36 40.96-216.32 119.04-295.04l2.56-2.56c160.64-160.64 423.04-162.56 585.6-2.56a414.528 414.528 0 0 1 124.8 293.12c1.28 111.36-40.96 216.32-119.04 295.04zM705.92 232.96l-42.88-42.88L512 341.12l-151.04-151.04-42.88 42.88L469.12 384 318.08 535.04l42.88 42.88L512 426.88l151.04 151.04 42.88-42.88L554.88 384l151.04-151.04z"  horiz-adv-x="1024" />
      
      <glyph glyph-name="ai-icon-Alipay" unicode="&#59157;" d="M928 233.6l-267.52 90.24c17.28 28.8 32 59.52 42.24 90.88 12.16 30.08 20.48 61.44 24.96 93.44l-173.44 1.28v59.52l209.92 1.28v41.6H554.24V707.2H451.2v-95.36H255.36v-41.6l195.84 1.28v-63.36H294.4v-33.28h323.2c-3.2-20.48-8.32-40.96-16-60.16-7.68-21.12-16-42.24-24.96-62.72-13.44-31.36-151.68 53.12-231.68 53.12s-177.28-32-186.88-125.44 45.44-144 122.24-162.56c71.68-15.36 145.92-4.48 209.92 30.72 46.08 26.24 87.68 59.52 122.88 99.2l311.68-151.68c-12.8-74.24-76.8-128-151.68-128H250.24a154.24 154.24 0 0 0-154.24 153.6v524.8c0 85.12 68.48 154.24 153.6 154.24h524.16c85.12 0 154.24-68.48 154.24-153.6v-412.8z m-389.76 51.84s-97.28-122.88-211.84-122.88-138.88 58.24-138.88 100.48 23.68 87.68 121.6 94.08 229.76-71.68 229.76-71.68z"  horiz-adv-x="1024" />
      
      <glyph glyph-name="a-ai-icon-WeChatPay" unicode="&#59155;" d="M398.72 290.56c-13.44-6.4-29.44-1.92-36.48 10.88l-1.92 3.84-75.52 159.36c-3.2 6.4 0 14.72 6.4 17.92 4.48 1.92 10.24 1.28 14.08-1.28l89.6-60.8c10.88-7.04 24.96-8.32 37.12-3.84l420.48 179.2c-75.52 85.12-199.68 140.8-339.84 140.8-229.76 0-416-149.12-416-332.8 0-99.84 56.32-190.08 144-251.52 10.24-7.04 14.08-19.2 10.24-30.08-7.04-24.96-17.92-65.28-18.56-67.2-0.64-3.2-2.56-6.4-2.56-9.6 0-7.04 6.4-13.44 14.08-13.44 2.56 0 5.76 0.64 7.68 2.56l90.88 50.56c7.04 3.84 14.08 6.4 21.76 6.4 4.48 0 8.32 0 12.16-1.92a518.4 518.4 0 0 1 135.68-17.92c229.76 0 416 149.12 416 332.8 0 55.68-17.28 108.16-47.36 154.24L401.92 293.76l-3.2-1.92z"  horiz-adv-x="1024" />
      
      <glyph glyph-name="ai-icon-huiyuan" unicode="&#59148;" d="M683.52 494.72L511.36 288.64 339.84 495.36H252.8v-33.28c10.88 1.28 21.76-3.2 28.16-12.16v-3.84c37.76-48.64 186.24-216.96 227.84-269.44 41.6 52.48 189.44 221.44 227.84 270.08 6.4 8.96 17.28 13.44 28.16 12.16v38.4h-75.52s-3.84 0-5.12-3.2z m252.8 51.84c32-37.76 32-92.8 0-130.56L730.88 192l-151.68-163.84c-15.36-21.12-39.68-33.28-65.92-33.28-26.24 0-49.92 12.8-65.92 33.28l-148.48 158.72-211.2 228.48c-32 37.12-32 91.52 0 128.64l97.28 108.16 80.64 87.68c16 20.48 40.96 32.64 67.2 32.64h359.04c24.96-1.28 48.64-12.8 64.64-32 33.28-33.28 105.6-113.92 149.76-160.64l30.08-33.28z"  horiz-adv-x="1024" />
      
      <glyph glyph-name="ai-icon-guanbi" unicode="&#59149;" d="M512-74.88c-247.04 0-448 199.04-448 443.52 0 108.16 39.68 212.48 112 293.76 32 35.84 69.76 66.56 112 90.88 15.36 8.96 34.56 3.84 43.52-12.16 8.96-15.36 3.2-35.2-12.16-43.52-35.84-20.48-68.48-46.72-96-78.08a374.4 374.4 0 0 1-96-250.88c0-209.28 172.16-379.52 384-379.52s384 170.24 384 379.52c0 92.16-33.92 181.76-96 250.88-27.52 30.72-60.16 56.96-96 78.08a31.552 31.552 0 0 0-11.52 43.52c8.96 15.36 28.16 20.48 43.52 12.16 42.24-24.32 80-54.4 112-90.88a441.472 441.472 0 0 0 112-293.76c0-244.48-200.96-443.52-448-443.52z m0 405.76c-17.92 0-32 14.08-32 32v448c0 17.92 14.08 32 32 32s32-14.08 32-32v-448c0-17.92-14.08-32-32-32z"  horiz-adv-x="1024" />
      
      <glyph glyph-name="ai-icon-caidan" unicode="&#59150;" d="M832 608H192c-17.92 0-32 14.08-32 32s14.08 32 32 32h640c17.92 0 32-14.08 32-32s-14.08-32-32-32zM832 352H192c-17.92 0-32 14.08-32 32s14.08 32 32 32h640c17.92 0 32-14.08 32-32s-14.08-32-32-32zM832 96H192c-17.92 0-32 14.08-32 32s14.08 32 32 32h640c17.92 0 32-14.08 32-32s-14.08-32-32-32z"  horiz-adv-x="1024" />
      
      <glyph glyph-name="ai-icon-danxiang" unicode="&#59151;" d="M748.16 170.88a30.08 30.08 0 0 0-22.4 9.6c-12.8 12.8-12.8 32.64 0 45.44l126.72 126.72H96.64c-17.92 0-32 14.08-32 32s14.08 32 32 32h755.2l-126.08 126.08c-12.8 12.8-12.8 32.64 0 45.44s32.64 12.8 45.44 0l179.2-179.2c7.04-5.76 10.88-14.72 10.88-24.32 0-8.96-3.84-16.64-9.6-22.4l-181.12-181.12c-6.4-6.4-14.72-9.6-22.4-9.6z"  horiz-adv-x="1024" />
      
      <glyph glyph-name="ai-icon-bangzhu" unicode="&#59152;" d="M512-64c-119.68 0-232.32 46.72-316.8 131.2S64 264.32 64 384s46.72 232.32 131.2 316.8S392.32 832 512 832s232.32-46.72 316.8-131.2C913.28 616.32 960 503.68 960 384s-46.72-232.32-131.2-316.8A445.44 445.44 0 0 0 512-64zM512 768c-102.4 0-199.04-39.68-271.36-112.64C168.32 583.04 128 486.4 128 384s39.68-199.04 112.64-271.36S409.6 0 512 0s199.04 39.68 271.36 112.64C855.68 184.96 896 281.6 896 384s-39.68 199.04-112.64 271.36A382.08 382.08 0 0 1 512 768zM512 262.4c-17.92 0-32 14.08-32 32V374.4c0 17.92 14.08 32 32 32 53.12 0 96 39.68 96 88.32S565.12 583.04 512 583.04s-96-39.68-96-88.32c0-17.92-14.08-32-32-32s-32 14.08-32 32c0 83.84 71.68 152.32 160 152.32s160-68.48 160-152.32c0-73.6-55.04-135.04-128-149.12v-51.2c0-17.92-14.08-32-32-32zM512 88.32c-35.2 0-64 28.8-64 64s28.8 64 64 64 64-28.8 64-64-28.8-64-64-64z m0 64v0z"  horiz-adv-x="1024" />
      
      <glyph glyph-name="ai-icon_weixin" unicode="&#59153;" d="M857.6 0h-12.8l-51.2 32c-25.6-6.4-64-12.8-96-12.8-128 0-236.8 70.4-275.2 166.4h-12.8c-44.8 0-89.6 0-134.4 12.8h-12.8l-76.8-38.4h-38.4c-12.8 6.4-12.8 19.2-6.4 32l19.2 51.2c-83.2 64-128 140.8-128 230.4C32 640 185.6 768 377.6 768s313.6-102.4 345.6-243.2c147.2-12.8 268.8-121.6 268.8-256s-38.4-134.4-115.2-192l12.8-38.4c0-12.8 0-25.6-12.8-32 0 0-12.8-6.4-19.2-6.4z m-70.4 32z m83.2 38.4z m-172.8 390.4c-128 0-230.4-83.2-230.4-192s102.4-192 230.4-192 57.6 6.4 89.6 12.8h32c0 12.8 6.4 19.2 19.2 25.6 64 44.8 96 102.4 96 153.6 0 102.4-108.8 192-230.4 192z m153.6-364.8zM256 198.4z m12.8 0z m-6.4 57.6h32c38.4-12.8 76.8-19.2 115.2-12.8v25.6c0 128 115.2 236.8 256 256C640 627.2 518.4 710.4 384 710.4S96 601.6 96 473.6s38.4-134.4 108.8-185.6c12.8-12.8 19.2-25.6 19.2-44.8h12.8c0 12.8 12.8 12.8 19.2 12.8zM275.2 563.2m-44.8 0a44.8 44.8 0 1 1 89.6 0 44.8 44.8 0 1 1-89.6 0ZM499.2 563.2m-44.8 0a44.8 44.8 0 1 1 89.6 0 44.8 44.8 0 1 1-89.6 0ZM608 326.4m-38.4 0a38.4 38.4 0 1 1 76.8 0 38.4 38.4 0 1 1-76.8 0ZM780.8 326.4m-38.4 0a38.4 38.4 0 1 1 76.8 0 38.4 38.4 0 1 1-76.8 0Z"  horiz-adv-x="1024" />
      
      <glyph glyph-name="ai-icon-bofang" unicode="&#59154;" d="M821.184 439.552l-433.664 254.08a63.616 63.616 0 0 1-64.64 0.384 63.68 63.68 0 0 1-32.32-55.872v-508.288c0-23.424 12.032-44.288 32.32-55.872 10.048-5.76 21.056-8.64 32-8.64 11.264 0 22.4 3.008 32.64 8.96l433.664 254.08c19.968 11.712 31.808 32.512 31.808 55.616s-11.84 43.84-31.808 55.552z m-32.384-55.936L354.56 129.856l0.576 508.608 433.664-254.08v-0.768z"  horiz-adv-x="1024" />
      
      <glyph glyph-name="ai-icon-xise" unicode="&#59130;" d="M890.24 727.04l-35.2 35.2a95.936 95.936 0 0 1-135.68 0L646.4 689.28a63.36 63.36 0 0 1-86.4-2.56L512 638.72a63.36 63.36 0 0 1-2.56-86.4L181.76 224c-28.16-28.16-42.24-65.28-40.32-103.04l-10.24-10.24c-32-32-33.28-81.92-3.84-112 14.08-14.08 33.28-21.12 52.48-21.12 21.12 0 42.88 8.32 58.88 24.96l10.24 10.24c37.76-1.28 74.88 12.16 103.04 40.32l327.68 327.68c11.52-10.24 25.6-16 40.96-16 17.28 0 33.28 6.4 45.44 18.56l48 48a63.36 63.36 0 0 1 2.56 86.4l72.96 72.96c37.12 37.12 37.12 98.56 0 135.68z m-583.68-628.48c-17.28-17.28-40.96-24.96-62.72-20.48l-16.64 3.84-33.92-33.92c-7.04-7.04-17.28-7.68-21.12-3.84-4.48 4.48-3.84 14.08 3.2 21.12l33.92 33.92-3.84 17.28c-4.48 21.12 3.2 45.44 20.48 62.08l327.04 327.68L633.6 425.6l-327.04-327.04z"  horiz-adv-x="1024" />
      
      <glyph glyph-name="ai-icon-xiazai" unicode="&#59131;" d="M864 122.88h-704c-17.92 0-32 14.08-32 32V658.56c0 57.6 44.16 103.68 97.92 103.68h307.84c17.92 0 32-14.08 32-32s-14.08-32-32-32H225.92c-18.56 0-33.92-17.92-33.92-39.68v-471.68h640v160c0 17.92 14.08 32 32 32s32-14.08 32-32v-192c0-17.92-14.08-32-32-32zM803.2-5.12h-582.4c-86.4 0-156.8 57.6-156.8 128v32c0 17.92 14.08 32 32 32h832c17.92 0 32-14.08 32-32v-32c0-70.4-70.4-128-156.8-128zM128 122.88c0-34.56 42.24-64 92.8-64h582.4c50.56 0 92.8 29.44 92.8 64H128zM768 453.12h-0.64c-3.84 0-7.68 1.28-11.52 2.56s-7.04 3.2-9.6 6.4 0 0-0.64 0.64l-90.24 90.24c-12.8 12.8-12.8 32.64 0 45.44s32.64 12.8 45.44 0l35.84-35.84V741.12c0 17.92 14.08 32 32 32s32-14.08 32-32v-178.56l35.84 35.84c12.8 12.8 32.64 12.8 45.44 0s12.8-32.64 0-45.44l-90.24-90.24-0.64-0.64s-6.4-4.48-9.6-6.4-7.04-2.56-11.52-2.56h-0.64z"  horiz-adv-x="1024" />
      
      <glyph glyph-name="ai-icon-shangchauntupian" unicode="&#59122;" d="M808.192 467.84a32 32 0 0 1-32-32v-333.952c0-52.992-43.136-96.064-96.128-96.064H232.256a96.192 96.192 0 0 0-96.064 96V549.76c0 52.992 43.136 96.128 96 96.128h320a32 32 0 1 1 0 64h-320a160.256 160.256 0 0 1-160-160.128v-447.808a160.256 160.256 0 0 1 160-160.064h447.872a160.256 160.256 0 0 1 160.128 160V435.84a32 32 0 0 1-32 32zM919.808 725.504h-64V794.176a32 32 0 1 1-64 0v-68.672h-64a32 32 0 1 1 0-64h64v-59.328a32 32 0 1 1 64 0v59.328h64a32 32 0 1 1 0 64zM511.36 491.2a32 32 0 0 1-26.816-15.808L427.968 378.88l-37.824 41.152a32 32 0 0 1-49.92-3.52l-134.4-195.2a31.936 31.936 0 0 1 26.368-50.176h448a32.064 32.064 0 0 1 26.752 49.536l-168 256a31.936 31.936 0 0 1-27.52 14.464z m-218.24-256l77.056 112.064 40-43.456a32 32 0 0 1 51.2 5.504l52.288 89.216 107.264-163.328H293.12z"  horiz-adv-x="1024" />
      
      <glyph glyph-name="ai-icon-yijian" unicode="&#59132;" d="M331.264 150.336h320a32 32 0 1 1 0 64h-320a32 32 0 1 1 0-64zM569.216 459.072a31.872 31.872 0 0 1 44.992 4.992l256 320a32 32 0 0 1-49.984 40l-256-320a32 32 0 0 1 4.992-44.992zM331.264 316.288h192a32 32 0 1 1 0 64h-192a32 32 0 1 1 0-64zM864 541.952a32 32 0 0 1-32-32v-394.624c0-65.856-43.072-119.36-96.064-119.36H288c-52.992 0-96.064 53.504-96.064 119.36v529.28c0 65.792 43.072 119.36 96.064 119.36H608a32 32 0 1 1 0 64H288.064C199.808 827.968 128 745.6 128 644.48v-529.28c0-101.12 71.808-183.296 160.064-183.296H736c88.256 0 160.064 82.24 160.064 183.36V509.952a32 32 0 0 1-32 32z"  horiz-adv-x="1024" />
      
      <glyph glyph-name="ai-icon-shang" unicode="&#59133;" d="M752.64 238.72a32 32 0 0 0-28.8-17.92H300.16c-12.16 0-23.04 7.04-28.8 17.92a31.36 31.36 0 0 0 3.2 33.28l211.84 281.6c5.76 7.68 15.36 12.8 25.6 12.8s19.2-4.48 25.6-12.8l211.84-281.6c7.04-9.6 8.32-22.4 3.2-33.28z"  horiz-adv-x="1024" />
      
      <glyph glyph-name="ai-icon-naozhong" unicode="&#59134;" d="M512-90.88c-247.04 0-448 200.96-448 448s200.96 448 448 448 448-200.96 448-448-200.96-448-448-448z m0 832c-211.84 0-384-172.16-384-384s172.16-384 384-384 384 172.16 384 384-172.16 384-384 384zM652.16 159.36c-9.6 0-18.56 3.84-24.96 12.16l-128 158.72a32.64 32.64 0 0 0-7.04 19.84V575.36c0 17.92 14.08 32 32 32s32-14.08 32-32v-213.76l120.96-150.4c10.88-13.44 8.96-33.92-5.12-44.8a32.64 32.64 0 0 0-19.84-7.04zM104.96 730.88a32.32 32.32 0 0 0-14.72 60.8l128 64c16 7.68 35.2 1.28 42.88-14.08 7.68-16 1.28-35.2-14.08-42.88l-128-64c-4.48-2.56-9.6-3.2-14.08-3.2zM919.04 730.88c-5.12 0-9.6 1.28-14.08 3.2l-128 64a31.232 31.232 0 0 0-14.08 42.88c7.68 16 26.88 21.76 42.88 14.08l128-64c16-7.68 22.4-26.88 14.08-42.88-5.76-11.52-16.64-17.92-28.8-17.92z"  horiz-adv-x="1024" />
      
      <glyph glyph-name="ai-icon-top" unicode="&#59135;" d="M536.96-32c-17.92 0-32 14.08-32 32V520.32L303.36 318.72c-12.8-12.8-32.64-12.8-45.44 0-12.8 12.8-12.8 32.64 0 45.44l256 256c12.8 12.8 32.64 12.8 45.44 0l256-256c12.8-12.8 12.8-32.64 0-45.44-12.8-12.8-32.64-12.8-45.44 0L568.96 519.68V0c0-17.92-14.08-32-32-32z m256 768h-512c-17.92 0-32 14.08-32 32s14.08 32 32 32h512c17.92 0 32-14.08 32-32s-14.08-32-32-32z"  horiz-adv-x="1024" />
      
      <glyph glyph-name="ai-icon-suiji" unicode="&#59136;" d="M888.96 167.04h-60.16C872.32 230.4 896 305.28 896 384c0 102.4-39.68 199.04-112.64 271.36a383.04 383.04 0 0 1-385.28 95.36 31.872 31.872 0 1 1 19.2-60.8 319.36 319.36 0 0 0 321.28-79.36C798.72 550.4 832 469.76 832 384c0-53.76-14.72-104.32-39.04-150.4v29.44c0 17.92-14.08 32-32 32s-32-14.08-32-32v-128a32.64 32.64 0 0 1 32-32h128c17.92 0 32 14.08 32 32s-14.08 32-32 32zM583.04 71.68c-108.16-24.32-218.88 7.68-296.96 85.76-60.16 60.16-93.44 140.8-93.44 226.56 0 53.76 14.72 104.32 39.04 150.4v-29.44c0-17.92 14.08-32 32-32s32 14.08 32 32v128a32.64 32.64 0 0 1-32 32h-128c-17.92 0-32-14.08-32-32s14.08-32 32-32h60.16C152.32 537.6 128.64 462.72 128.64 384c0-102.4 39.68-199.04 112.64-271.36a382.336 382.336 0 0 1 356.48-103.04 32.192 32.192 0 0 1-14.08 62.72z"  horiz-adv-x="1024" />
      
      <glyph glyph-name="ai-icon-gantanhao" unicode="&#59121;" d="M806.4 678.4A412.8 412.8 0 0 1 512 800c-110.08 0-216.32-43.52-294.4-121.6A412.8 412.8 0 0 1 96 384c0-110.08 43.52-216.32 121.6-294.4A412.8 412.8 0 0 1 512-32c110.08 0 216.32 43.52 294.4 121.6A412.8 412.8 0 0 1 928 384c0 110.08-43.52 216.32-121.6 294.4z m-326.4-44.8c0 17.92 14.08 32 32 32s32-14.08 32-32v-332.8c0-17.92-14.08-32-32-32s-32 14.08-32 32V633.6z m32-519.68c-28.8 0-51.84 23.04-51.84 51.84s23.04 51.84 51.84 51.84 51.84-23.04 51.84-51.84-23.04-51.84-51.84-51.84z"  horiz-adv-x="1024" />
      
      <glyph glyph-name="ai-icon-quan" unicode="&#59137;" d="M894.72 444.928c20.48 11.328 33.28 34.048 33.28 59.264v40A160 160 0 0 1 768.192 704H255.808A160 160 0 0 1 96 544.192v-40c0-25.216 12.8-48 33.216-59.2 22.592-12.544 36.608-35.84 36.608-60.992s-14.08-48.448-36.544-60.928c-20.48-11.328-33.28-34.048-33.28-59.264v-40A160 160 0 0 1 255.808 64h512.384a160 160 0 0 1 159.808 159.808v40c0 25.216-12.8 48-33.216 59.2-22.592 12.544-36.608 35.84-36.608 60.992s14.08 48.448 36.544 60.928z m-30.912 56.064c-42.88-23.808-69.632-68.608-69.632-116.992s26.688-93.184 69.824-120.192v-40c0-52.864-42.944-95.808-95.808-95.808H255.808A95.936 95.936 0 0 0 160 223.808l0.192 43.2C203.072 290.816 229.76 335.616 229.76 384s-26.688 93.184-68.928 116.416a7.232 7.232 0 0 0-0.896 3.84v39.936C160 597.056 202.944 640 255.808 640h512.384c52.864 0 95.808-42.944 95.808-95.808l-0.192-43.2zM640 396.8a32 32 0 1 1 0 64H567.04l58.112 58.048a32 32 0 1 1-45.248 45.248L512 496.256l-67.84 67.84a32 32 0 1 1-45.312-45.248l58.176-58.112H384a32 32 0 1 1 0-64h96v-66.56H384a32 32 0 1 1 0-64h96v-71.168a32 32 0 1 1 64 0V266.24H640a32 32 0 1 1 0 64H544V396.8H640z"  horiz-adv-x="1024" />
      
      <glyph glyph-name="ai-icon-shezhi" unicode="&#59138;" d="M631.04-64c-5.12 0-10.24 1.28-14.72 3.84a29.376 29.376 0 0 0-15.36 18.56c-7.68 25.6-24.96 46.08-48 57.6-21.12 10.88-45.44 12.8-68.48 5.12-28.8-9.6-51.2-33.28-60.16-63.36-2.56-8.32-8.32-14.72-15.36-18.56-7.68-3.84-16-4.48-24.32-2.56a444.8 444.8 0 0 0-194.56 123.52 31.296 31.296 0 0 0-1.28 41.6c33.92 41.6 28.8 103.68-11.52 138.88-18.56 16.64-43.52 24.96-68.48 22.4a31.744 31.744 0 0 0-34.56 25.6c-5.76 30.72-8.96 62.08-8.96 93.44 0 47.36 7.04 94.72 20.48 138.88 3.84 13.44 16.64 22.4 30.72 22.4 26.24 0 49.28 10.24 66.56 28.16 17.92 18.56 27.52 43.52 27.52 69.76 0 15.36-3.2 30.08-9.6 43.52a32.256 32.256 0 0 0 6.4 36.48c52.48 50.56 116.48 88.32 185.6 108.16a32 32 0 0 0 37.76-16.64c16-32.64 47.36-53.12 82.56-53.12 34.56 0 66.56 20.48 82.56 53.12 7.04 14.08 22.4 21.12 37.76 16.64 69.12-19.84 133.12-56.96 185.6-108.16 9.6-9.6 12.8-24.32 6.4-36.48-23.04-48.64-3.84-108.16 42.24-131.84 12.8-6.4 24.96-9.6 41.6-9.6 12.8-1.92 26.88-8.96 31.36-23.04a483.136 483.136 0 0 0 11.52-232.32 31.36 31.36 0 0 0-34.56-25.6c-23.68 2.56-47.36-4.48-65.92-19.84-20.48-16.64-32.64-40.32-35.2-67.2-2.56-26.24 5.12-53.12 21.76-73.6 10.24-12.16 9.6-30.08-1.28-41.6-53.12-57.6-120.96-100.48-194.56-123.52-3.2-0.64-6.4-1.28-9.6-1.28z m-377.6 150.4c35.84-33.92 77.44-60.8 122.24-78.72 19.2 34.56 50.56 61.44 88.32 74.24 39.04 12.8 81.28 9.6 118.4-8.96 28.8-14.72 51.2-37.12 66.56-65.28 45.44 17.92 86.4 44.8 122.24 78.72-16 28.8-23.04 62.72-19.84 96 4.48 44.16 24.96 83.2 58.88 110.72 24.32 19.84 52.48 31.36 82.56 34.56 2.56 18.56 3.84 37.12 3.84 55.04 0 33.92-3.84 67.2-12.16 99.84-16 2.56-32 7.68-46.72 15.36-69.76 35.84-102.4 119.04-80 193.28-35.2 30.72-76.16 55.04-120.32 71.04C608 721.92 561.92 697.6 512 697.6s-96 24.32-125.44 64.64c-43.52-16-84.48-39.68-120.32-71.04 4.48-15.36 7.04-32 7.04-48.64 0-42.88-16-83.2-45.44-113.92-24.32-24.96-55.04-40.96-88.32-46.08-7.68-32-12.16-65.92-12.16-99.84 0-18.56 1.28-37.12 3.84-55.04 32-3.2 62.08-16 87.04-37.76 58.24-51.2 71.04-136.96 34.56-202.88zM512 190.72c-105.6 0-192 86.4-192 192s86.4 192 192 192 192-86.4 192-192-86.4-192-192-192z m0 320c-70.4 0-128-57.6-128-128s57.6-128 128-128 128 57.6 128 128-57.6 128-128 128z"  horiz-adv-x="1024" />
      
      <glyph glyph-name="ai-icon-shezhi2" unicode="&#59139;" d="M800.32 759.168h-576.64A159.872 159.872 0 0 1 64 599.488v-409.6a160.512 160.512 0 0 1 160.32-160.32H512a32 32 0 1 1 0 64H224.32c-53.12 0-96.32 43.2-96.32 96.32V445.568h768v-31.616a32 32 0 1 1 64 0v185.6a159.872 159.872 0 0 1-159.68 159.616zM128 509.568v89.6c0 52.928 43.072 96 96 96h576c52.928 0 96-43.072 96-96v-89.6H128zM220.8 643.968a41.6 41.6 0 1 1 0-83.2 41.6 41.6 0 0 1 0 83.2zM345.6 643.968a41.6 41.6 0 1 1 0-83.2 41.6 41.6 0 0 1 0 83.2zM936.192 275.2a32 32 0 0 1-43.712 11.712l-49.6-28.672c-8.384 7.104-17.92 12.8-28.48 16.64v57.088a32 32 0 1 1-64 0v-57.152c-10.56-3.84-20.096-9.408-28.48-16.512l-49.6 28.608a32 32 0 1 1-32-55.424l49.344-28.48c-0.96-5.44-1.664-10.88-1.664-16.64 0-5.632 0.704-11.136 1.664-16.576l-49.344-28.48a32 32 0 1 1 32-55.424l49.6 28.608c8.384-7.04 17.92-12.736 28.48-16.512v-57.152a32 32 0 1 1 64 0v57.152c10.496 3.84 20.032 9.472 28.48 16.512l49.6-28.608a32 32 0 0 1 32 55.424l-49.344 28.48c0.96 5.44 1.664 10.88 1.664 16.64 0 5.632-0.64 11.136-1.664 16.512l49.344 28.544a32 32 0 0 1 11.712 43.712z m-184.192-88.768a30.4 30.4 0 1 0 60.8 0 30.4 30.4 0 0 0-60.8 0z"  horiz-adv-x="1024" />
      
      <glyph glyph-name="ai-icon-qiehuan" unicode="&#59140;" d="M392.32-17.28a30.08 30.08 0 0 0-22.4 9.6l-256 256-0.64 0.64s-5.12 6.4-6.4 9.6a30.592 30.592 0 0 0-2.56 11.52v1.92c0 3.84 1.28 7.68 2.56 11.52a23.04 23.04 0 0 0 6.4 9.6l1.28 1.28s5.76 4.48 9.6 6.4 8.32 2.56 12.8 2.56h752c17.92 0 32-14.08 32-32s-14.08-32-32-32H213.12l201.6-201.6c12.8-12.8 12.8-32.64 0-45.44-6.4-6.4-14.72-9.6-22.4-9.6z m495.36 482.56H136.32c-17.92 0-32 14.08-32 32s14.08 32 32 32h674.56L609.28 730.88c-12.8 12.8-12.8 32.64 0 45.44s32.64 12.8 45.44 0l256-256s5.12-6.4 7.04-10.24 2.56-8.32 2.56-12.8-0.64-8.96-2.56-12.8c-1.28-3.2-3.2-6.4-5.76-9.6 0 0-0.64-1.28-1.28-1.28s-5.76-4.48-9.6-6.4-8.32-2.56-12.8-2.56z"  horiz-adv-x="1024" />
      
      <glyph glyph-name="ai-icon-bofang2" unicode="&#59120;" d="M512-64c-247.04 0-448 200.96-448 448s200.96 448 448 448 448-200.96 448-448-200.96-448-448-448zM512 768C300.16 768 128 595.84 128 384s172.16-384 384-384 384 172.16 384 384-172.16 384-384 384zM425.6 192c-5.12 0-10.88 1.28-15.36 3.84a32.576 32.576 0 0 0-16.64 28.16v320c0 11.52 6.4 22.4 16.64 28.16 10.24 5.76 22.4 5.12 32.64-0.64l256-160c9.6-5.76 15.36-16 15.36-26.88s-5.76-21.12-15.36-26.88l-256-160c-5.12-3.2-10.88-5.12-16.64-5.12z m32 294.4v-204.8L621.44 384 457.6 486.4z"  horiz-adv-x="1024" />
      
      <glyph glyph-name="ai-icon-lishijilu" unicode="&#59141;" d="M512 832c-126.08 0-245.12-54.4-328.96-145.28v32.64c0 17.92-14.08 32-32 32s-32-14.08-32-32v-128c0-17.92 14.08-32 32-32h128c17.92 0 32 14.08 32 32s-14.08 32-32 32H212.48A384.96 384.96 0 0 0 512 768c211.84 0 384-172.16 384-384s-172.16-384-384-384-384 172.16-384 384c0 17.92-14.08 32-32 32S64 401.92 64 384c0-247.04 200.96-448 448-448s448 200.96 448 448-200.96 448-448 448zM536.32 612.48c-17.92 0-32-14.08-32-32v-187.52c0-8.32 3.2-16 8.96-22.4l128-132.48a32.512 32.512 0 0 1 45.44-0.64c12.8 12.16 12.8 32.64 0.64 45.44L568.32 405.76V580.48c0 17.92-14.08 32-32 32z"  horiz-adv-x="1024" />
      
      <glyph glyph-name="ai-icon-laba" unicode="&#59142;" d="M496-32c-17.92 0-32 14.08-32 32V768c0 17.92 14.08 32 32 32 146.56 0 257.28-144 290.56-192h112.64c42.24 0 76.8-33.28 76.8-74.88v-295.04c0-40.96-34.56-74.88-76.8-74.88h-112.64c-33.28-49.28-144-195.2-290.56-195.2z m32 764.8v-697.6c120.96 24.32 213.12 174.72 213.76 176.64 5.76 9.6 16 15.36 27.52 15.36h129.92c7.04 0 12.8 4.48 12.8 10.88V533.12c0 5.76-5.76 10.88-12.8 10.88h-129.92c-10.88 0-21.76 5.76-27.52 15.36-0.64 1.92-92.8 150.4-213.76 173.44zM336 160a29.44 29.44 0 0 0-21.12 8.32 287.04 287.04 0 0 0-96 216.32c0 62.08 19.2 120.96 55.68 170.88 12.16 16.64 25.6 31.36 40.32 44.8 13.44 12.16 33.28 10.24 45.44-2.56 11.52-13.44 10.88-33.28-2.56-45.44-11.52-10.24-21.76-21.76-31.36-34.56-28.16-39.04-43.52-85.12-43.52-133.12s14.72-94.08 42.88-132.48c9.6-12.8 19.84-24.96 32-35.84a32.256 32.256 0 0 0-21.12-56.32zM288.64-14.72c-5.76 0-11.52 1.28-16.64 4.48C133.76 72.32 48 223.36 48 384s81.28 305.92 217.6 390.4c14.72 9.6 34.56 4.48 44.16-10.24 9.6-14.72 4.48-34.56-10.24-44.16C182.4 647.68 112 521.6 112 384s73.6-268.16 192.64-339.2c15.36-8.96 20.48-28.8 10.88-44.16-5.76-10.24-16.64-15.36-27.52-15.36z"  horiz-adv-x="1024" />
      
      <glyph glyph-name="ai-icon-luyin" unicode="&#59143;" d="M512 202.88c105.6 0 192 81.28 192 181.12V661.12C704 760.96 617.6 842.24 512 842.24S320 760.96 320 661.12V384c0-99.84 86.4-181.12 192-181.12zM384 661.12c0 64.64 57.6 117.12 128 117.12s128-52.48 128-117.12V384c0-64.64-57.6-117.12-128-117.12S384 319.36 384 384V661.12zM832 437.12c-17.92 0-32-14.08-32-32 0-158.72-129.28-288-288-288s-288 129.28-288 288c0 17.92-14.08 32-32 32s-32-14.08-32-32c0-183.04 140.8-334.72 320-350.72v-97.28c0-17.92 14.08-32 32-32s32 14.08 32 32v97.28c179.2 16 320 167.04 320 350.72 0 17.92-14.08 32-32 32z"  horiz-adv-x="1024" />
      
      <glyph glyph-name="ai-icon-jieshu" unicode="&#59144;" d="M512-64c-247.04 0-448 200.96-448 448s200.96 448 448 448 448-200.96 448-448-200.96-448-448-448zM512 768C300.16 768 128 595.84 128 384s172.16-384 384-384 384 172.16 384 384-172.16 384-384 384zM640 224H384c-17.92 0-32 14.08-32 32V512c0 17.92 14.08 32 32 32h256c17.92 0 32-14.08 32-32v-256c0-17.92-14.08-32-32-32z m-224 64h192v192h-192v-192z"  horiz-adv-x="1024" />
      
      <glyph glyph-name="ai-icon-dingdan" unicode="&#59145;" d="M736.96 798.72h-38.976V833.28a32 32 0 0 1-32 32H358.016a32 32 0 0 1-32-32v-34.56H288A160.192 160.192 0 0 1 128 638.72v-576.896a159.232 159.232 0 0 1 159.04-159.104H736c88.192 0 160 71.808 160 160.064V639.68a159.232 159.232 0 0 1-159.04 159.04z m-346.944 2.56h243.968v-70.016H390.016V801.28zM832 62.72c0-52.928-43.072-96-96-96H287.04A95.168 95.168 0 0 0 192 61.76V638.72c0 52.928 43.072 96 96 96h38.016v-35.456a32 32 0 0 1 32-32h307.968a32 32 0 0 1 32 32V734.72h38.976c52.352 0 95.04-42.624 95.04-95.04v-576.896zM642.304 302.08h-256a32 32 0 1 1 0-64h256a32 32 0 1 1 0 64zM642.304 468.032h-256a32 32 0 1 1 0-64h256a32 32 0 1 1 0 64z"  horiz-adv-x="1024" />
      
      <glyph glyph-name="ai-icon-jishiqi" unicode="&#59146;" d="M512-64c-211.84 0-384 172.16-384 384s172.16 384 384 384 384-172.16 384-384-172.16-384-384-384zM512 640C335.36 640 192 496.64 192 320s143.36-320 320-320 320 143.36 320 320-143.36 320-320 320zM640 768H384c-17.92 0-32 14.08-32 32S366.08 832 384 832h256c17.92 0 32-14.08 32-32s-14.08-32-32-32zM512 288c-17.92 0-32 14.08-32 32V499.2c0 17.92 14.08 32 32 32s32-14.08 32-32V320c0-17.92-14.08-32-32-32zM691.2 288H512c-17.92 0-32 14.08-32 32s14.08 32 32 32h179.2c17.92 0 32-14.08 32-32s-14.08-32-32-32zM512 640c-17.92 0-32 14.08-32 32v128c0 17.92 14.08 32 32 32s32-14.08 32-32v-128c0-17.92-14.08-32-32-32z"  horiz-adv-x="1024" />
      
      <glyph glyph-name="ai-icon-fenxiang" unicode="&#59147;" d="M800.64 288c-58.88 0-110.08-32.64-137.6-80L382.72 301.44c0.64 6.4 1.92 12.16 1.92 19.2 0 25.6-6.4 49.28-17.28 71.04L569.6 549.12c28.16-23.68 64-39.04 103.04-39.04a160 160 0 0 1 0 320 160 160 0 0 1-160-160c0-25.6 6.4-49.28 17.28-71.04L327.68 441.6c-28.16 23.68-64 39.04-103.04 39.04a160 160 0 0 1 0-320c58.88 0 110.08 32.64 137.6 80l280.32-93.44c-0.64-6.4-1.92-12.16-1.92-19.2a160 160 0 0 1 320 0 160 160 0 0 1-160 160z m-128 477.44c53.12 0 96-42.88 96-96s-42.88-96-96-96-96 42.88-96 96 42.88 96 96 96z m-448-541.44c-53.12 0-96 42.88-96 96s42.88 96 96 96 96-42.88 96-96-42.88-96-96-96z m576-192c-53.12 0-96 42.88-96 96s42.88 96 96 96 96-42.88 96-96-42.88-96-96-96z"  horiz-adv-x="1024" />
      
      <glyph glyph-name="ai-icon-zuo" unicode="&#59123;" d="M693.12-10.24a30.08 30.08 0 0 0-22.4 9.6L308.48 361.6c-12.8 12.8-12.8 32.64 0 45.44l361.6 361.6c12.8 12.8 32.64 12.8 45.44 0s12.8-32.64 0-45.44L376.32 384l339.2-339.2c12.8-12.8 12.8-32.64 0-45.44-6.4-6.4-14.72-9.6-22.4-9.6z"  horiz-adv-x="1024" />
      
      <glyph glyph-name="ai-icon-zanting" unicode="&#59124;" d="M711.744 65.536a32 32 0 0 0-32 32V670.464a32 32 0 1 0 64 0v-572.928a32 32 0 0 0-32-32z m-399.488 0a32 32 0 0 0-32 32V670.464a32 32 0 1 0 64 0v-572.928a32 32 0 0 0-32-32z"  horiz-adv-x="1024" />
      
      <glyph glyph-name="ai-icon-shuangxiang" unicode="&#59125;" d="M748.16 170.88a30.08 30.08 0 0 0-22.4 9.6c-12.8 12.8-12.8 32.64 0 45.44l126.08 126.08H172.16l126.08-126.08c12.8-12.8 12.8-32.64 0-45.44s-32.64-12.8-45.44 0L71.68 361.6c-12.8 12.8-12.8 32.64 0 45.44l181.12 181.12c12.8 12.8 32.64 12.8 45.44 0s12.8-32.64 0-45.44L172.16 416.64h679.68l-126.08 126.08c-12.8 12.8-12.8 32.64 0 45.44s32.64 12.8 45.44 0l181.12-181.12 0.64-0.64s4.48-5.76 5.76-9.6c1.92-3.84 2.56-8.32 2.56-12.8s-0.64-8.96-2.56-12.8c-1.28-3.2-3.2-6.4-5.76-9.6s0 0-0.64-0.64l-181.12-181.12c-6.4-6.4-14.72-9.6-22.4-9.6z"  horiz-adv-x="1024" />
      
      <glyph glyph-name="ai-icon-wo" unicode="&#59126;" d="M512-64c-247.04 0-448 200.96-448 448s200.96 448 448 448 448-200.96 448-448-200.96-448-448-448zM512 768C300.16 768 128 595.84 128 384s172.16-384 384-384 384 172.16 384 384-172.16 384-384 384zM512 380.8c-70.4 0-128 57.6-128 128s57.6 128 128 128 128-57.6 128-128-57.6-128-128-128z m0 192c-35.2 0-64-28.8-64-64s28.8-64 64-64 64 28.8 64 64-28.8 64-64 64zM224 55.04h-1.92a32.576 32.576 0 0 0-30.08 33.92 238.848 238.848 0 0 0 237.44 222.08h165.12c124.8 0 229.12-97.28 237.44-221.44 1.28-17.92-12.16-32.64-29.44-33.92a32.064 32.064 0 0 0-33.92 29.44 174.528 174.528 0 0 1-173.44 161.92H430.08c-91.52 0-167.68-71.04-173.44-161.92a32.64 32.64 0 0 0-32-30.08z"  horiz-adv-x="1024" />
      
      <glyph glyph-name="ai-icon-you" unicode="&#59127;" d="M330.88-10.24a30.08 30.08 0 0 0-22.4 9.6c-12.8 12.8-12.8 32.64 0 45.44l339.2 339.2-339.2 339.2c-12.8 12.8-12.8 32.64 0 45.44s32.64 12.8 45.44 0l362.24-362.24c12.8-12.8 12.8-32.64 0-45.44l-362.24-362.24c-6.4-6.4-14.72-9.6-22.4-9.6z"  horiz-adv-x="1024" />
      
      <glyph glyph-name="ai-icon-xia" unicode="&#59128;" d="M752.64 485.12a32 32 0 0 1-28.8 17.92H300.16c-12.16 0-23.04-7.04-28.8-17.92a31.36 31.36 0 0 1 3.2-33.28l211.84-281.6c5.76-7.68 15.36-12.8 25.6-12.8s19.2 4.48 25.6 12.8l211.84 281.6c7.04 9.6 8.32 22.4 3.2 33.28z"  horiz-adv-x="1024" />
      
    </font>
</defs>
</svg>
